ซีรี่ย์จีน: Master of My Own
ชื่อภาษาไทย: ขอโทษที ฉันไม่ใช่เลขาคุณแล้ว
ประเภท: Workplace, Romance
นักแสดง: Lin Geng Xin, Tan Song Yun, Liu Chang, Su Xin, Wang Xiu Zhu
จำนวนตอน: 32
เขียนบทโดย: Hu Fei Zi, Zhong Ning, Chen Shu Ling, Zhou You
ผู้กำกับ: Yao Ting Ting
ออกอากาศทางสถานีโทรทัศน์: Dragon TV, Youku
เริ่มออกอากาศ: 2022-Apr-29
เวลาออกอากาศ: -
นักแสดง:
Lin Geng Xin as Lu Jiming
Tan Song Yun as Ning Meng
Liu Chang as Su Weiran
Bai Bing as Han Yimeng
Gong Bei Bi as Shi Ying
Su Xin as Zeng Yuhang
Wang Xiu Zhu as Xu Sitian
Liu En Jia as You Qi
Qu Gao Wei as He Yuluan
Wang Li Na as Yang Xiaoyang
Zhang Lei as Ren Pengfei
Yuan Man as Qiu Junlin
Chang Hai Bo as Liu Yitian
Luo Ji as Xiao Song
Li Hong Tao as Lu Tianxing
Zhou Ling as Liu Lei
Miao Hao Jun as Mr. Ning
Guo Hong as Mrs. Ning
Wang Wen Qi as Tang Ya
Peng Gao Chang as Feng Xiao
Wang Yu Ning as Lin Dayi
Ma Rui as Liu Huimin
Li Ya as Liu Junchen
Lin Xue Piao as Quan Ruru
Yu Xiao Wan as Chen Xiaoyi
Li Bin as Jin Haiyang
Li Hong Lei as Secretary Zhao
Qu Zhe Ming as Yuan Jie
Wang Xing Han as Tang Zhengwang
Pang Han Chen as Max
Denny Huang as Jie Rui
Hai Tong as Fang Jian
Qin Yu as Wang Yao
An Jie as Xiao Luan
Sysopsis: หนิงเหมิงมีความฝันที่จะเป็นผู้อำนวยการด้านการลงทุน มาตลอด แต่หลังจากเรียนจบ อาชีพที่เธอได้ทำกลับต่างจากสิ่งที่เธอฝันลิบลับ เจ้านายของเธอ ลู่จี้หมิง เป็นประธานด้านการลงทุนที่มีความสามารถทางธุรกิจที่แ ข็งแกร่ง เขาไม่คิดว่าหนิงเหมิงจะสามารถเป็นนักลงทุนที่มีคุณส มบัติเหมาะสมได้ วันหนึ่ง หนิงเหมิงตัดสินใจเลิกทำงานกับลู่จี้หมิง และสัญญากับเขาและตัวเธอเองว่าเธอจะประสบความสำเร็จใ ห้จงได้ หนิงเหมิงไปสมัครงานหนึ่งและหลังจากอุปสรรคต่าง ๆ ในที่สุดเธอก็ได้เข้าไปทำงานที่อีเกิลสโตนซึ่งการเลื ่อนตำแหน่งของเธอได้เริ่มต้นขึ้น ในระหว่างนั้น ลู่จี้หมิงก็ให้ความสนใจหนิงเหมิงอย่างใกล้ชิด ในตอนแรกเขาไม่รู้ความสามารถของเธอ แต่ในช่วงหัวเลี้ยวหัวต่อที่สำคัญ เขาจะยังคงสั่งสอนและช่วยเหลือเธอ ปรัชญาการลงทุนระยะยาวของลู่จี้หมิงทำให้หนิงเหมิงเข ้าใจแจ่มแจ้ง และเธอยังเปลี่ยนทัศนคติของลู่จี้หมิงที่มีต่อโลก ทั้งสองมีอิทธิพลต่อกันและกันและทำงานร่วมกัน หลังจากผ่านจุดพลิกผันหลายต่อหลายครั้ง หนิงเหมิงก็ได้กลายเป็นนักลงทุนอิสระระดับชั้นนำ ส่วนลู่จี้หมิงก็ได้เติบโตขึ้นและมีความรับผิดชอบมาก ขึ้น และพวกเขาก็เชื่อว่าพวกเขาเป็นคู่แท้ของกันและกัน มาตืดามชมกันได้ในซีรี่ย์ Master of My Own ขอโทษที ฉันไม่ใช่เลขาคุณแล้ว
Credit: franky

General
Unique ID : 302216937874649524550336088709019300488 (0xE35CDD72F56CE74953B2D7F53B757288)
Complete name : E:Master of My Own ขอโทษที ฉันไม่ใช่เลขาคุณแล้วMaster of My Own.2022.S01E09.1080p.VIU.WEB-DL.AAC.H.264.mkv
Format : Matroska
Format version : Version 4
File size : 801 MiB
Duration : 46 min 20 s
Overall bit rate mode : Variable
Overall bit rate : 2 417 kb/s
Encoded date : UTC 2022-05-18 12:13:24
Writing application : mkvmerge v19.0.0 ('Brave Captain') 64-bit
Writing library : libebml v1.3.5 + libmatroska v1.4.8

Video
ID : 1
Format : AVC
Format/Info : Advanced Video Codec
Format profile : [email protected]
Format settings : CABAC / 4 Ref Frames
Format settings, CABAC : Yes
Format settings, Reference fra : 4 frames
Codec ID : V_MPEG4/ISO/AVC
Duration : 46 min 20 s
Bit rate mode : Variable
Bit rate : 2 307 kb/s
Maximum bit rate : 4 500 kb/s
Width : 1 920 pixels
Height : 1 080 pixels
Display aspect ratio : 16:9
Frame rate mode : Constant
Frame rate : 25.000 FPS
Color space : YUV
Chroma subsampling : 4:2:0
Bit depth : 8 bits
Scan type : Progressive
Bits/(Pixel*Frame) : 0.045
Stream size : 765 MiB (95%)
Writing library : VOLO1.4.1
Default : Yes
Forced : No

Audio
ID : 2
Format : AAC LC
Format/Info : Advanced Audio Codec Low Complexity
Codec ID : A_AAC-2
Duration : 46 min 20 s
Bit rate : 96.0 kb/s
Channel(s) : 2 channels
Channel layout : L R
Sampling rate : 48.0 kHz
Frame rate : 46.875 FPS (1024 SPF)
Compression mode : Lossy
Delay relative to video : -43 ms
Stream size : 31.8 MiB (4%)
Language : Chinese
Default : Yes
Forced : No

Text #1
ID : 3
Format : UTF-8
Codec ID : S_TEXT/UTF8
Codec ID/Info : UTF-8 Plain Text
Duration : 42 min 8 s
Bit rate : 130 b/s
Count of elements : 589
Stream size : 40.4 KiB (0%)
Language : Thai
Default : Yes
Forced : No

Text #2
ID : 4
Format : PGS
Muxing mode : zlib
Codec ID : S_HDMV/PGS
Codec ID/Info : Picture based subtitle format used on BDs/HD-DVDs
Duration : 42 min 8 s
Bit rate : 22.8 kb/s
Count of elements : 1178
Stream size : 6.87 MiB (1%)
Language : Thai
Default : No
Forced : No



Master_of_My_Own.2022.S01E32.END.1080p.VIU.WEB-DL.AAC.H.264.mkv
http://www.filecondo.com/dl.php?f=z447ab1O9SII

Master_of_My_Own.2022.S01E31.1080p.VIU.WEB-DL.AAC.H.264.mkv
http://www.filecondo.com/dl.php?f=Re4f9c1O9SHB

Master_of_My_Own.2022.S01E30.1080p.VIU.WEB-DL.AAC.H.264.mkv
http://www.filecondo.com/dl.php?f=Y0938d1O9SED

Master_of_My_Own.2022.S01E29.1080p.VIU.WEB-DL.AAC.H.264.mkv
http://www.filecondo.com/dl.php?f=l5254f1O9SC8

Master_of_My_Own.2022.S01E28.1080p.VIU.WEB-DL.AAC.H.264.mkv
http://www.filecondo.com/dl.php?f=Qd685f1O9Szr

Master_of_My_Own.2022.S01E27.1080p.VIU.WEB-DL.AAC.H.264.mkv
http://www.filecondo.com/dl.php?f=b004eb1O9SyE

Master_of_My_Own.2022.S01E26.1080p.VIU.WEB-DL.AAC.H.264.mkv
http://www.filecondo.com/dl.php?f=Lf61001O9SxM

Master_of_My_Own.2022.S01E25.1080p.VIU.WEB-DL.AAC.H.264.mkv
http://www.filecondo.com/dl.php?f=p7adbc1O9Swm

Master_of_My_Own.2022.S01E24.1080p.VIU.WEB-DL.AAC.H.264.mkv
http://www.filecondo.com/dl.php?f=9d23c21O9SvV

Master_of_My_Own.2022.S01E23.1080p.VIU.WEB-DL.AAC.H.264.mkv
http://www.filecondo.com/dl.php?f=Hb63761O9StJ

Master_of_My_Own.2022.S01E22.1080p.VIU.WEB-DL.AAC.H.264.mkv
http://www.filecondo.com/dl.php?f=h411c01O9Ssu

Master_of_My_Own.2022.S01E21.1080p.VIU.WEB-DL.AAC.H.264.mkv
http://www.filecondo.com/dl.php?f=Ba0f2e1O9Srw

Master_of_My_Own.2022.S01E20.1080p.VIU.WEB-DL.AAC.H.264.mkv
http://www.filecondo.com/dl.php?f=Aecae11O9Sqx

Master_of_My_Own.2022.S01E19.1080p.VIU.WEB-DL.AAC.H.264.mkv
http://www.filecondo.com/dl.php?f=P591fb1O9SpA

Master_of_My_Own.2022.S01E18.1080p.VIU.WEB-DL.AAC.H.264.mkv
http://www.filecondo.com/dl.php?f=Ab0c541O9SoB

Master_of_My_Own.2022.S01E17.1080p.VIU.WEB-DL.AAC.H.264.mkv
http://www.filecondo.com/dl.php?f=i4bf441O9SnE

Master_of_My_Own.2022.S01E16.1080p.VIU.WEB-DL.AAC.H.264.mkv
http://www.filecondo.com/dl.php?f=Rdb7181O9SmS

Master_of_My_Own.2022.S01E15.1080p.VIU.WEB-DL.AAC.H.264.mkv
http://www.filecondo.com/dl.php?f=Bcd24b1O9SlI

Master_of_My_Own.2022.S01E14.1080p.VIU.WEB-DL.AAC.H.264.mkv
http://www.filecondo.com/dl.php?f=y9de8e1O9SkQ

Master_of_My_Own.2022.S01E13.1080p.VIU.WEB-DL.AAC.H.264.mkv
http://www.filecondo.com/dl.php?f=i1c0bf1O9SjM

Master_of_My_Own.2022.S01E12.1080p.VIU.WEB-DL.AAC.H.264.mkv
http://www.filecondo.com/dl.php?f=pecad01O9SiO

Master_of_My_Own.2022.S01E11.1080p.VIU.WEB-DL.AAC.H.264.mkv
http://www.filecondo.com/dl.php?f=j15b641O9Si3

Master_of_My_Own.2022.S01E10.1080p.VIU.WEB-DL.AAC.H.264.mkv
http://www.filecondo.com/dl.php?f=xfc97c1O9SgS

Master_of_My_Own.2022.S01E09.1080p.VIU.WEB-DL.AAC.H.264.mkv
http://www.filecondo.com/dl.php?f=qe9a5c1O9Sg6

Master_of_My_Own.2022.S01E08.1080p.VIU.WEB-DL.AAC.H.264.mkv
http://www.filecondo.com/dl.php?f=sf93191O9SdK

Master_of_My_Own.2022.S01E07.1080p.VIU.WEB-DL.AAC.H.264.mkv
http://www.filecondo.com/dl.php?f=P902571O9S97

Master_of_My_Own.2022.S01E06.1080p.VIU.WEB-DL.AAC.H.264.mkv
http://www.filecondo.com/dl.php?f=J4a2311O9S8b

Master_of_My_Own.2022.S01E05.1080p.VIU.WEB-DL.AAC.H.264.mkv
http://www.filecondo.com/dl.php?f=R62a4e1O9S7l

Master_of_My_Own.2022.S01E04.1080p.VIU.WEB-DL.AAC.H.264.mkv
http://www.filecondo.com/dl.php?f=l646991O9S6e

Master_of_My_Own.2022.S01E03.1080p.VIU.WEB-DL.AAC.H.264.mkv
http://www.filecondo.com/dl.php?f=h895821O9S5h

Master_of_My_Own.2022.S01E02.1080p.VIU.WEB-DL.AAC.H.264.mkv
http://www.filecondo.com/dl.php?f=Xd88ed1O9S4i

Master_of_My_Own.2022.S01E01.1080p.VIU.WEB-DL.AAC.H.264.mkv
http://www.filecondo.com/dl.php?f=n39d341O9S3k