+ ตอบกลับกระทู้
สรุปผลการค้นหา 1 ถึง 6 จากทั้งหมด 6
  1. #1
    Administrators รูปส่วนตัว Duckload.us
    สมัครเมื่อ
    Dec 2010
    โพสต์
    137,508
    Thanks
    7
    Thanked 143,447 Times in 62,405 Posts

    Thumbs up [จีน] Detective Dee and The Red Eye (2021) ตี๋เหรินเจี๋ย นักสืบจอมเจ้าเล่ห์ [พากย์:จีน/ไทย มาสเตอร์][SUB:อังกฤษ][1080p]



    ในช่วงรัชสมัยของจักรพรรดินีบูเช็กเทียน ตี๋เหรินเจี๋ยผู้ดูแลคดี "ปีศาจตาแดง" อันแสนวุ่น ต้องกำจัดองค์ชายอู่หมินจือที่พยายามแย่งชิงอำนาจและ ครองบัลลังก์ เพื่อรักษาเสถียรภาพของบ้านเมือง

    Format : Matroska
    Format version : Version 4
    File size : 3.96 GiB
    Duration : 1 h 26 min
    Overall bit rate : 6 583 kb/s
    Movie name : Detective Dee and The Red Eye (2021)_©GOLD CUP™_WWW.TT-TORRENT.COM

    Video
    ID : 1
    Format : AVC
    Format/Info : Advanced Video Codec
    Format profile : [email protected]
    Format settings : CABAC / 1 Ref Frames
    Format settings, CABAC : Yes
    Format settings, Reference : 1 frame
    Format settings, GOP : M=1, N=25
    Codec ID : V_MPEG4/ISO/AVC
    Duration : 1 h 26 min
    Bit rate mode : Constant
    Bit rate : 6 181 kb/s
    Width : 1 920 pixels
    Height : 808 pixels
    Display aspect ratio : 2.40:1
    Frame rate mode : Constant
    Frame rate : 25.000 FPS
    Color space : YUV
    Chroma subsampling : 4:2:0
    Bit depth : 8 bits
    Scan type : Progressive
    Bits/(Pixel*Frame) : 0.159
    Stream size : 3.71 GiB (94%)
    Title : Detective Dee and The Red Eye (2021)_©GOLD CUP™
    Language : Chinese
    Default : Yes
    Forced : No

    Audio #1
    ID : 2
    Format : AAC LC
    Format/Info : Advanced Audio Codec Low Complexity
    Codec ID : A_AAC-2
    Duration : 1 h 26 min
    Bit rate : 192 kb/s
    Channel(s) : 2 channels
    Channel layout : L R
    Sampling rate : 44.1 kHz
    Frame rate : 43.066 FPS (1024 SPF)
    Compression mode : Lossy
    Stream size : 120 MiB (3%)
    Title : Th.AAC.2.0_192 kbs
    Language : Thai
    Default : Yes
    Forced : No

    Audio #2
    ID : 3
    Format : AAC LC
    Format/Info : Advanced Audio Codec Low Complexity
    Codec ID : A_AAC-2
    Duration : 1 h 26 min
    Bit rate : 192 kb/s
    Channel(s) : 2 channels
    Channel layout : L R
    Sampling rate : 44.1 kHz
    Frame rate : 43.066 FPS (1024 SPF)
    Compression mode : Lossy
    Stream size : 117 MiB (3%)
    Title : Chi.AAC.2.0_192 kbs
    Language : Chinese
    Default : Yes
    Forced : No

    Text
    ID : 4
    Format : PGS
    Muxing mode : zlib
    Codec ID : S_HDMV/PGS
    Codec ID/Info : Picture based subtitle format used on BDs/HD-DVDs
    Duration : 1 h 25 min
    Bit rate : 33.9 kb/s
    Frame rate : 0.442 FPS
    Count of elements : 2262
    Stream size : 20.7 MiB (1%)
    Title : EN.110.3.83.Yellow
    Language : English
    Default : No
    Forced : No






    Download:filecondo
    http://www.filecondo.com/dl.php?f=jfb7e61Oe95c
    Download:cornfile
    https://www.cornfile.com/754x85qv8ll3

  2. The Following 6 Users Say Thank You to Duckload.us For This Useful Post:

    dulobobo (07-21-2022), Jodz14 (07-21-2022), kappa (07-25-2022), lonin (07-21-2022), NaiWan (07-21-2022), Wesker_TOT (07-23-2022)

  3. #2
    Senior Member
    สมัครเมื่อ
    Oct 2013
    โพสต์
    2,211
    Thanks
    0
    Thanked 0 Times in 0 Posts
    ขอบคุณครับ

  4. #3
    Senior Member
    สมัครเมื่อ
    Jul 2012
    โพสต์
    8,036
    Thanks
    0
    Thanked 0 Times in 0 Posts
    ขอบคุณมากจ้า

  5. #4
    Senior Member
    สมัครเมื่อ
    Dec 2013
    โพสต์
    3,801
    Thanks
    5,706
    Thanked 0 Times in 0 Posts
    ขอบคุณครับ...

  6. #5
    Junior Member
    สมัครเมื่อ
    Jul 2017
    โพสต์
    1
    Thanks
    0
    Thanked 0 Times in 0 Posts
    พากย์อะไรกันครับเนี่ยยยยยยยยยย

  7. #6
    Senior Member
    สมัครเมื่อ
    Jun 2012
    โพสต์
    1,592
    Thanks
    0
    Thanked 1 Time in 1 Post
    ขอบคุณครับ

+ ตอบกลับกระทู้

ข้อมูลกระทู้

Users Browsing this Thread

ในขณะนี้มี 1 ท่านดูกระทู้อยู่. (0 สมาชิกและ 1 ผู้เยี่ยมชม)

     

กฎการโพสต์ข้อความ

  • ท่าน ไม่สามารถ ตั้งกระทู้ใหม่ได้
  • ท่าน ไม่สามารถ ตอบกระทู้ได้
  • ท่าน ไม่สามารถ แนบไฟล์ได้
  • ท่าน ไม่สามารถ แก้ไขข้อความโพสต์ได้
  • BB code สถานะ เปิด
  • Smilies สถานะ เปิด
  • [IMG] สถานะ เปิด
  • HTML สถานะ ปิด