+ ตอบกลับกระทู้
สรุปผลการค้นหา 1 ถึง 1 จากทั้งหมด 1
  1. #1
    Administrators รูปส่วนตัว Duckload.us
    สมัครเมื่อ
    Dec 2010
    โพสต์
    137,508
    Thanks
    7
    Thanked 143,447 Times in 62,405 Posts

    Thumbs up Eraser Reborn (2022) อีเรเซอร์ รีบอร์น 1080p BluRay H264 AAC [พากย์:ไทย,Eng][SUB:ENG][1080p] [Modified]



    เรื่องย่อ
    Eraser (2022) Reborn หนังฝรั่งเรื่องนี้เป็นหนังแนวแอ็คชั่น มีเนื้อเรื่องว่า อมพล เมสัน พอลลาร์ด แห่งสหรัฐฯ เชี่ยวชาญในการ “ลบล้าง” ผู้คน โดยแกล้งทำเป็นว่าพยานที่มีความเสี่ยงสูงเสียชีวิต ด้วยความก้าวหน้าทางเทคโนโลยีในช่วง 25 ปีที่ผ่านมา เกมได้รับการอัปเกรด และมันเป็นอีกวันหนึ่งที่สำนักงานเมื่อเขาได้รับมอบห มายให้เป็น นะ คิมูระ ภรรยาของหัวหน้าอาชญากรที่ตัดสินใจเปลี่ยนหลักฐานของ รัฐ ขณะที่ทั้งสองหนีไปเคปทาวน์ แอฟริกาใต้พร้อมกับทีมนักฆ่าที่ไร้ความปราณี พอลลาร์ดพบว่าเขาถูกจัดตั้งขึ้นแล้ว

    General
    Complete name : F:/Movies/Eraser Reborn (2022) ????????? ???????.1080p.BluRay.H264.AAC @bURIN .mkv
    Format : Matroska
    Format version : Version 4
    File size : 3.21 GiB
    Duration : 1 h 42 min
    Overall bit rate : 4 491 kb/s
    Movie name : Eraser Reborn (2022) ????????? ???????.1080p.BluRay.H264.AAC @bURIN
    Encoded date : UTC 2022-07-19 21:31:33
    Writing application : mkvmerge v68.0.0 ('The Curtain') 32-bit
    Writing library : libebml v1.4.2 + libmatroska v1.6.4

    Video
    ID : 1
    Format : AVC
    Format/Info : Advanced Video Codec
    Format profile : [email protected]
    Format settings : CABAC / 4 Ref Frames
    Format settings, CABAC : Yes
    Format settings, Reference frames : 4 frames
    Codec ID : V_MPEG4/ISO/AVC
    Duration : 1 h 42 min
    Bit rate : 2 500 kb/s
    Width : 1 920 pixels
    Height : 804 pixels
    Display aspect ratio : 2.40:1
    Frame rate mode : Constant
    Frame rate : 23.976 (23976/1000) FPS
    Color space : YUV
    Chroma subsampling : 4:2:0
    Bit depth : 8 bits
    Scan type : Progressive
    Bits/(Pixel*Frame) : 0.068
    Stream size : 1.79 GiB (56%)
    Writing library : x264 core 152 r2851M ba24899
    Encoding settings : cabac=1 / ref=4 / deblock=1:-1:-1 / analyse=0x3:0x113 / me=umh / subme=9 / psy=1 / psy_rd=1.00:0.15 / mixed_ref=1 / me_range=24 / chroma_me=1 / trellis=2 / 8x8dct=1 / cqm=0 / deadzone=21,11 / fast_pskip=1 / chroma_qp_offset=-3 / threads=16 / lookahead_threads=4 / sliced_threads=0 / nr=0 / decimate=1 / interlaced=0 / bluray_compat=0 / constrained_intra=0 / bframes=3 / b_pyramid=2 / b_adapt=2 / b_bias=0 / direct=3 / weightb=1 / open_gop=0 / weightp=2 / keyint=250 / keyint_min=25 / scenecut=40 / intra_refresh=0 / rc_lookahead=50 / rc=2pass / mbtree=1 / bitrate=2500 / ratetol=1.0 / qcomp=0.60 / qpmin=0 / qpmax=69 / qpstep=4 / cplxblur=20.0 / qblur=0.5 / vbv_maxrate=31250 / vbv_bufsize=31250 / nal_hrd=none / filler=0 / ip_ratio=1.40 / aq=3:1.00
    Default : Yes
    Forced : No

    Audio #1
    ID : 2
    Format : AAC LC
    Format/Info : Advanced Audio Codec Low Complexity
    Codec ID : A_AAC-2
    Duration : 1 h 42 min
    Bit rate : 224 kb/s
    Channel(s) : 6 channels
    Channel layout : C L R Ls Rs LFE
    Sampling rate : 48.0 kHz
    Frame rate : 46.875 FPS (1024 SPF)
    Compression mode : Lossy
    Delay relative to video : -43 ms
    Stream size : 164 MiB (5%)
    Title : ?????? AAC
    Language : English
    Default : No
    Forced : No

    Audio #2
    ID : 3
    Format : DTS
    Format/Info : Digital Theater Systems
    Codec ID : A_DTS
    Duration : 1 h 42 min
    Bit rate mode : Constant
    Bit rate : 1 413 kb/s
    Channel(s) : 2 channels
    Channel layout : L R
    Sampling rate : 48.0 kHz
    Frame rate : 93.750 FPS (512 SPF)
    Bit depth : 16 bits
    Compression mode : Lossy
    Delay relative to video : -43 ms
    Stream size : 1.01 GiB (31%)
    Title : ??? DTS
    Language : Thai
    Default : No
    Forced : No

    Audio #3
    ID : 4
    Format : AAC LC
    Format/Info : Advanced Audio Codec Low Complexity
    Codec ID : A_AAC-2
    Duration : 1 h 42 min
    Bit rate : 341 kb/s
    Channel(s) : 6 channels
    Channel layout : C L R Ls Rs LFE
    Sampling rate : 48.0 kHz
    Frame rate : 46.875 FPS (1024 SPF)
    Compression mode : Lossy
    Delay relative to video : -43 ms
    Stream size : 250 MiB (8%)
    Title : ??? AAC
    Language : Thai
    Default : Yes
    Forced : No

    Text #1
    ID : 5
    Format : UTF-8
    Codec ID : S_TEXT/UTF8
    Codec ID/Info : UTF-8 Plain Text
    Duration : 1 h 35 min
    Bit rate : 42 b/s
    Count of elements : 1119
    Stream size : 29.5 KiB (0%)
    Title : ?????? SRT
    Language : English
    Default : No
    Forced : No

    Text #2
    ID : 6
    Format : UTF-8
    Codec ID : S_TEXT/UTF8
    Codec ID/Info : UTF-8 Plain Text
    Duration : 1 h 37 min
    Bit rate : 48 b/s
    Count of elements : 1325
    Stream size : 34.5 KiB (0%)
    Title : ?????? SRT
    Language : English
    Default : No
    Forced : No

    Text #3
    ID : 7
    Format : PGS
    Muxing mode : zlib
    Codec ID : S_HDMV/PGS
    Codec ID/Info : Picture based subtitle format used on BDs/HD-DVDs
    Duration : 1 h 35 min
    Bit rate : 25.5 kb/s
    Count of elements : 2238
    Stream size : 17.4 MiB (1%)
    Title : ?????? PGS
    Language : English
    Default : Yes
    Forced : No





    Download:filecondo
    http://www.filecondo.com/dl.php?f=Wd47181Oe8EX
    Download:cornfile
    https://www.cornfile.com/9dxshh7wn1pg

  2. The Following 2 Users Say Thank You to Duckload.us For This Useful Post:

    Jodz14 (07-21-2022), lonin (07-21-2022)

+ ตอบกลับกระทู้

ข้อมูลกระทู้

Users Browsing this Thread

ในขณะนี้มี 1 ท่านดูกระทู้อยู่. (0 สมาชิกและ 1 ผู้เยี่ยมชม)

     

กฎการโพสต์ข้อความ

  • ท่าน ไม่สามารถ ตั้งกระทู้ใหม่ได้
  • ท่าน ไม่สามารถ ตอบกระทู้ได้
  • ท่าน ไม่สามารถ แนบไฟล์ได้
  • ท่าน ไม่สามารถ แก้ไขข้อความโพสต์ได้
  • BB code สถานะ เปิด
  • Smilies สถานะ เปิด
  • [IMG] สถานะ เปิด
  • HTML สถานะ ปิด