+ ตอบกลับกระทู้
สรุปผลการค้นหา 1 ถึง 1 จากทั้งหมด 1
  1. #1
    Administrators รูปส่วนตัว Duckload.us
    สมัครเมื่อ
    Dec 2010
    โพสต์
    137,508
    Thanks
    7
    Thanked 143,446 Times in 62,405 Posts

    Thumbs up [ฝรั่ง]-Shut In (2022) [พากย์อังกฤษ] • [บรรยายไทย+อังกฤษ]-HDTV.H.264.1080p. [Modified]-[Soundtrack บรรยายไทย (Master)]



    เรื่องย่อ : Shut In (2022) ภาพยนตร์สยองขวัญผลงานของผู้กำกับดีเจ คารูโซ เรื่องราวของคุณแม่ยังสาวคนหนึ่งถูกแฟนเก่าหัวรุนแรง ขังไว้ขังอยู่ในตู้กับข้าว เธอต้องใช้ความเฉลียวฉลาดในการปกป้องลูกเล็กๆ สองคนของเธอจากอันตรายที่ทวีความรุนแรงขึ้นในขณะที่ห าทางหนี เธอและลูกจะรอดพ้นจากอันตรายครั้งนี้หรือไม่ต้องติดต าม

    Format : Matroska
    Format version : Version 4
    File size : 7.56 GiB
    Duration : 1 h 29 min
    Overall bit rate : 12.2 Mb/s
    Movie name : Shut In (2022)
    Encoded date : UTC 2022-07-24 02:59:39
    Writing application : mkvmerge v60.0.0 ('Are We Copies?') 64-bit
    Writing library : libebml v1.4.2 + libmatroska v1.6.4
    Cover : Yes
    Attachments : cover.jpg

    Video
    ID : 1
    Format : AVC
    Format/Info : Advanced Video Codec
    Format profile : [email protected]
    Format settings : CABAC / 5 Ref Frames
    Format settings, CABAC : Yes
    Format settings, Reference fra : 5 frames
    Codec ID : V_MPEG4/ISO/AVC
    Duration : 1 h 29 min
    Bit rate : 11.5 Mb/s
    Width : 1 920 pixels
    Height : 804 pixels
    Display aspect ratio : 2.40:1
    Frame rate mode : Constant
    Frame rate : 23.976 (24000/1001) FPS
    Color space : YUV
    Chroma subsampling : 4:2:0
    Bit depth : 8 bits
    Scan type : Progressive
    Bits/(Pixel*Frame) : 0.311
    Stream size : 7.16 GiB (95%)
    Title : Shut In (2022)
    Writing library : x264 core 164 r3065 ae03d92
    Encoding settings : cabac=1 / ref=5 / deblock=1:-3:-3 / analyse=0x3:0x133 / me=umh / subme=10 / psy=1 / psy_rd=1.00:0.00 / mixed_ref=1 / me_range=32 / chroma_me=1 / trellis=2 / 8x8dct=1 / cqm=0 / deadzone=21,11 / fast_pskip=0 / chroma_qp_offset=-2 / threads=18 / lookahead_threads=4 / sliced_threads=0 / nr=0 / decimate=0 / interlaced=0 / bluray_compat=0 / constrained_intra=0 / bframes=16 / b_pyramid=2 / b_adapt=2 / b_bias=0 / direct=3 / weightb=1 / open_gop=0 / weightp=2 / keyint=240 / keyint_min=24 / scenecut=40 / intra_refresh=0 / rc_lookahead=60 / rc=crf / mbtree=0 / crf=16.8 / qcomp=0.60 / qpmin=0 / qpmax=69 / qpstep=4 / vbv_maxrate=62500 / vbv_bufsize=78125 / crf_max=0.0 / nal_hrd=none / filler=0 / ip_ratio=1.40 / pb_ratio=1.30 / aq=2:1.00
    Default : Yes
    Forced : No
    Color range : Limited
    Color primaries : BT.709
    Transfer characteristics : BT.709
    Matrix coefficients : BT.709

    Audio
    ID : 2
    Format : AC-3
    Format/Info : Audio Coding 3
    Commercial name : Dolby Digital
    Codec ID : A_AC3
    Duration : 1 h 29 min
    Bit rate mode : Constant
    Bit rate : 640 kb/s
    Channel(s) : 6 channels
    Channel layout : L R C LFE Ls Rs
    Sampling rate : 48.0 kHz
    Frame rate : 31.250 FPS (1536 SPF)
    Compression mode : Lossy
    Stream size : 408 MiB (5%)
    Title : English AC-3 (5.1)
    Language : English
    Service kind : Complete Main
    Default : Yes
    Forced : Yes

    Text #1
    ID : 3
    Format : UTF-8
    Codec ID : S_TEXT/UTF8
    Codec ID/Info : UTF-8 Plain Text
    Duration : 1 h 23 min
    Bit rate : 103 b/s
    Count of elements : 901
    Stream size : 62.7 KiB (0%)
    Title : ไทย SRT
    Language : Thai
    Default : Yes
    Forced : No

    Text #2
    ID : 4
    Format : UTF-8
    Codec ID : S_TEXT/UTF8
    Codec ID/Info : UTF-8 Plain Text
    Duration : 1 h 23 min
    Bit rate : 40 b/s
    Count of elements : 946
    Stream size : 24.4 KiB (0%)
    Title : English SRT
    Language : English
    Default : No
    Forced : No

    Menu
    00:00:00.000 : :Chapter 1
    00:08:00.271 : :Chapter 2
    00:14:47.512 : :Chapter 3
    00:26:18.911 : :Chapter 4
    00:32:30.657 : :Chapter 5
    00:39:22.527 : :Chapter 6
    00:50:09.882 : :Chapter 7
    00:58:34.761 : :Chapter 8
    01:05:04.609 : :Chapter 9
    01:12:04.320 : :Chapter 10
    01:24:27.563 : :Chapter 11





    Download:filecondo
    http://www.filecondo.com/dl.php?f=Q4b9201OfUgF
    Download:cornfile
    https://www.cornfile.com/t095zqv6932l

  2. The Following User Says Thank You to Duckload.us For This Useful Post:

    mettset (07-29-2022)

+ ตอบกลับกระทู้

ข้อมูลกระทู้

Users Browsing this Thread

ในขณะนี้มี 1 ท่านดูกระทู้อยู่. (0 สมาชิกและ 1 ผู้เยี่ยมชม)

     

กฎการโพสต์ข้อความ

  • ท่าน ไม่สามารถ ตั้งกระทู้ใหม่ได้
  • ท่าน ไม่สามารถ ตอบกระทู้ได้
  • ท่าน ไม่สามารถ แนบไฟล์ได้
  • ท่าน ไม่สามารถ แก้ไขข้อความโพสต์ได้
  • BB code สถานะ เปิด
  • Smilies สถานะ เปิด
  • [IMG] สถานะ เปิด
  • HTML สถานะ ปิด