+ ตอบกลับกระทู้
สรุปผลการค้นหา 1 ถึง 1 จากทั้งหมด 1
  1. #1
    Administrators รูปส่วนตัว Duckload.us
    สมัครเมื่อ
    Dec 2010
    โพสต์
    137,508
    Thanks
    7
    Thanked 143,446 Times in 62,405 Posts

    Thumbs up [ฝรั่ง]-Sniper.The.White.Raven.2022.1080p.AMZN.WEB-DL.DDP5.1.H.264.UK.SUB-TH.Google. [ พากย์.ยูเครน.ซับไทยแปล-อังกฤษ ]-Blu-ray.AC-3.1080p. [Modified]-[Soundtrack บรรยายไทย (แปล)]




    Sniper : The White Raven เป็นหนังที่สร้างอิงจากเหตุการณ์จริงในปี 2014 ของ Mykola Voronin ครูฟิสิกส์ชาวยูเครนผู้มีชีวิตสงบในเมือง Donbas แต่หลังจากทหารรัสเซียรุกรานเข้ามาแล้วฆ่าครอบครัวขอ งเขา ความคลั่งแค้นทำให้เขาตัดสินใจสมัครเข้ากองทัพยูเครน จนกลายมาเป็นสไนเปอร์มือดีของกองทัพยูเครน ถือเป็นหนังที่สร้างได้ไวมาก เพราะในขณะที่สงครามข้อพิพาทระหว่าง ยูเครน-รัสเซีย ยังคุกรุ่น หนังก็สร้างจนเสร็จและได้ลงโรงฉายแล้วกลายเป็นหนังขว ัญใจนักวิจารณ์ไปแล้วในตอนนี้ Sniper : The White Raven คือการตอบโต้ชาติรัสเซียด้วยศิลปวัฒนธรรมของภาพยนตร์ โดยได้ทุนสร้างจาก สำนักงานภาพยนตร์แห่งประเทศยูเครนและ กระทรวงวัฒนธรรมและนโยบายข้อมูลของประเทศยูเครน หนังกำกับโดย Marian Bushan นำแสดงโดย นักแสดง นักดนตรี และช่างภาพชื่อดังของยูเครนอย่าง Pavlo Aldoshyn ร่วมด้วย Maryna Koshkina , Andrey Mostrenko , Aldoshyn Pavlo , Roman Semysal และ Zachary Shadrin


    Format : Matroska
    Format version : Version 4
    File size : 6.71 GiB
    Duration : 1 h 51 min
    Overall bit rate : 8 608 kb/s
    Movie name : Sniper.The.White.Raven.2022.1080p.AMZN.WEB-DL.DDP5.1.H.264.UK.SUB-TH.Google.kiatplk
    Encoded date : UTC 2022-07-27 04:24:23
    Writing application : mkvmerge v64.0.0 ('Willows') 64-bit
    Writing library : libebml v1.4.2 + libmatroska v1.6.4

    Video
    ID : 1
    Format : AVC
    Format/Info : Advanced Video Codec
    Format profile : [email protected]
    Format settings : CABAC / 4 Ref Frames
    Format settings, CABAC : Yes
    Format settings, Reference fra : 4 frames
    Codec ID : V_MPEG4/ISO/AVC
    Duration : 1 h 51 min
    Bit rate mode : Constant
    Bit rate : 7 950 kb/s
    Nominal bit rate : 10 000 kb/s
    Width : 1 920 pixels
    Height : 800 pixels
    Display aspect ratio : 2.40:1
    Frame rate mode : Constant
    Frame rate : 24.000 FPS
    Color space : YUV
    Chroma subsampling : 4:2:0
    Bit depth : 8 bits
    Scan type : Progressive
    Bits/(Pixel*Frame) : 0.216
    Stream size : 6.20 GiB (92%)
    Default : Yes
    Forced : No
    Color range : Limited
    Color primaries : BT.709
    Transfer characteristics : BT.709
    Matrix coefficients : BT.709

    Audio
    ID : 2
    Format : E-AC-3
    Format/Info : Enhanced AC-3
    Commercial name : Dolby Digital Plus
    Codec ID : A_EAC3
    Duration : 1 h 51 min
    Bit rate mode : Constant
    Bit rate : 640 kb/s
    Channel(s) : 6 channels
    Channel layout : L R C LFE Ls Rs
    Sampling rate : 48.0 kHz
    Frame rate : 31.250 FPS (1536 SPF)
    Compression mode : Lossy
    Stream size : 511 MiB (7%)
    Language : Ukrainian
    Service kind : Complete Main
    Default : Yes
    Forced : No

    Text #1
    ID : 3
    Format : UTF-8
    Codec ID : S_TEXT/UTF8
    Codec ID/Info : UTF-8 Plain Text
    Duration : 1 h 43 min
    Bit rate : 24 b/s
    Frame rate : 0.121 FPS
    Count of elements : 755
    Stream size : 18.5 KiB (0%)
    Language : English
    Default : Yes
    Forced : Yes

    Text #2
    ID : 4
    Format : UTF-8
    Codec ID : S_TEXT/UTF8
    Codec ID/Info : UTF-8 Plain Text
    Duration : 1 h 43 min
    Bit rate : 57 b/s
    Frame rate : 0.120 FPS
    Count of elements : 749
    Stream size : 43.8 KiB (0%)
    Language : Thai
    Default : Yes
    Forced : No

    Text #3
    ID : 5
    Format : PGS
    Muxing mode : zlib
    Codec ID : S_HDMV/PGS
    Codec ID/Info : Picture based subtitle format used on BDs/HD-DVDs
    Duration : 1 h 43 min
    Bit rate : 17.3 kb/s
    Frame rate : 0.240 FPS
    Count of elements : 1498
    Stream size : 12.8 MiB (0%)
    Title : Thai1080p.Angsana
    Language : Thai
    Default : Yes
    Forced : No

    Text #4
    ID : 6
    Format : PGS
    Muxing mode : zlib
    Codec ID : S_HDMV/PGS
    Codec ID/Info : Picture based subtitle format used on BDs/HD-DVDs
    Duration : 1 h 43 min
    Bit rate : 17.3 kb/s
    Frame rate : 0.240 FPS
    Count of elements : 1498
    Stream size : 12.8 MiB (0%)
    Title : Thai1080p.Angsana [ yellow ]
    Language : Thai
    Default : Yes
    Forced : No





    Download:filecondo
    http://www.filecondo.com/dl.php?f=f59cc51Ohn2C
    Download:cornfile
    https://www.cornfile.com/ruxtnqrrwncr

  2. The Following 2 Users Say Thank You to Duckload.us For This Useful Post:

    masaomi (08-01-2022), neorun (07-31-2022)

+ ตอบกลับกระทู้

ข้อมูลกระทู้

Users Browsing this Thread

ในขณะนี้มี 1 ท่านดูกระทู้อยู่. (0 สมาชิกและ 1 ผู้เยี่ยมชม)

     

กฎการโพสต์ข้อความ

  • ท่าน ไม่สามารถ ตั้งกระทู้ใหม่ได้
  • ท่าน ไม่สามารถ ตอบกระทู้ได้
  • ท่าน ไม่สามารถ แนบไฟล์ได้
  • ท่าน ไม่สามารถ แก้ไขข้อความโพสต์ได้
  • BB code สถานะ เปิด
  • Smilies สถานะ เปิด
  • [IMG] สถานะ เปิด
  • HTML สถานะ ปิด