+ ตอบกลับกระทู้
สรุปผลการค้นหา 1 ถึง 4 จากทั้งหมด 4
  1. #1
    Administrators รูปส่วนตัว Duckload.us
    สมัครเมื่อ
    Dec 2010
    โพสต์
    137,508
    Thanks
    7
    Thanked 143,447 Times in 62,405 Posts

    Thumbs up [ฝรั่ง]-Lightyear (2022) [1080p WEB-DL]-[เสียง: ไทย DD+ 5.1 + อังกฤษ Atmos]-[Sub: ไทย + อังกฤษ SRT]-WEB-DL.H.264.1080p. [Master]-[พากย์ไทย บรรยายไทย]




    เรื่องราวการผจญภัยในอดีตที่ไม่เคยมีใครเคยรู้มาก่อน ของ บัซ ไลท์เยียร์ ที่กลายเป็นแรงบันดาลใจของของเล่น บัซ ไลท์เยียร์ ในแอนิเมชัน ทอย สตอรี่ ทั้ง 4 ภาค นักบินอวกาศผู้มีความมุ่งมั่นและภักดีในอาชีพของตัวเ อง การผจญภัยของบัซเริ่มต้นเมื่อเขาต้องติดอยู่บนดาวเคร าะห์ร้างที่ห่างไกลจากโลกถึง 4.2 ล้านปีแสง บัซ และทีมจึงได้เร่งพัฒนายานอวกาศและหาวิธีการเพื่อพาทุ กคนกลับสู่โลก วันหนึ่งในขณะที่พวกเขากำลังทดสอบยานอวกาศลำใหม่ เกิดเหตุผิดพลาดขึ้นทำให้บัซและซ็อกซ์ หุ่นยนต์แมวคู่ใจไปตกยังดาวปริศนาแห่งหนึ่ง ซึ่งในขณะที่บัซพยายามหาทางเอาตัวรอดและพาตัวเองออกจ ากดาวแห่งนั้น ต้องเผชิญกับกองทัพหุ่นยนต์เอเลี่ยนเซิร์ก ที่แสนโหดเหี้ยม แต่ในความโชคร้าย ยังมีความโชคดีที่ได้พบกับเพื่อนใหม่ร่วมผจญภัยไปพร้ อมกันกับเขา

    Format : Matroska
    Format version : Version 4
    File size : 7.96 GiB
    Duration : 1 h 45 min
    Overall bit rate : 10.8 Mb/s
    Encoded date : UTC 2022-08-03 07:07:35
    Writing application : mkvmerge v69.0.0 ('Day And Age') 64-bit
    Writing library : libebml v1.4.2 + libmatroska v1.6.4

    Video
    ID : 1
    Format : AVC
    Format/Info : Advanced Video Codec
    Format profile : [email protected]
    Format settings : CABAC / 5 Ref Frames
    Format settings, CABAC : Yes
    Format settings, Reference frames : 5 frames
    Codec ID : V_MPEG4/ISO/AVC
    Duration : 1 h 45 min
    Bit rate : 9 877 kb/s
    Width : 1 920 pixels
    Height : 804 pixels
    Display aspect ratio : 2.40:1
    Frame rate mode : Constant
    Frame rate : 23.976 (24000/1001) FPS
    Color space : YUV
    Chroma subsampling : 4:2:0
    Bit depth : 8 bits
    Scan type : Progressive
    Bits/(Pixel*Frame) : 0.267
    Stream size : 7.25 GiB (91%)
    Language : English
    Default : Yes
    Forced : No
    Color range : Limited
    Color primaries : BT.709
    Transfer characteristics : BT.709
    Matrix coefficients : BT.709

    Audio #1
    ID : 2
    Format : E-AC-3 JOC
    Format/Info : Enhanced AC-3 with Joint Object Coding
    Commercial name : Dolby Digital Plus with Dolby Atmos
    Codec ID : A_EAC3
    Duration : 1 h 45 min
    Bit rate mode : Constant
    Bit rate : 768 kb/s
    Channel(s) : 6 channels
    Channel layout : L R C LFE Ls Rs
    Sampling rate : 48.0 kHz
    Frame rate : 31.250 FPS (1536 SPF)
    Compression mode : Lossy
    Stream size : 577 MiB (7%)
    Title : English (Atmos)
    Language : English
    Service kind : Complete Main
    Default : No
    Forced : No
    Complexity index : 16
    Number of dynamic objects : 15
    Bed channel count : 1 channel
    Bed channel configuration : LFE

    Audio #2
    ID : 3
    Format : E-AC-3
    Format/Info : Enhanced AC-3
    Commercial name : Dolby Digital Plus
    Codec ID : A_EAC3
    Duration : 1 h 45 min
    Bit rate mode : Constant
    Bit rate : 192 kb/s
    Channel(s) : 6 channels
    Channel layout : L R C LFE Ls Rs
    Sampling rate : 48.0 kHz
    Frame rate : 31.250 FPS (1536 SPF)
    Compression mode : Lossy
    Stream size : 144 MiB (2%)
    Title : Thai (DD+ 5.1 - Hotstar)
    Language : Thai
    Service kind : Complete Main
    Default : Yes
    Forced : No

    Text #1
    ID : 4
    Format : UTF-8
    Codec ID : S_TEXT/UTF8
    Codec ID/Info : UTF-8 Plain Text
    Duration : 1 h 44 min
    Bit rate : 75 b/s
    Count of elements : 2074
    Stream size : 57.9 KiB (0%)
    Title : English (SRT - Hotstar)
    Language : English
    Default : No
    Forced : No

    Text #2
    ID : 5
    Format : UTF-8
    Codec ID : S_TEXT/UTF8
    Codec ID/Info : UTF-8 Plain Text
    Duration : 1 h 43 min
    Bit rate : 133 b/s
    Count of elements : 1563
    Stream size : 101 KiB (0%)
    Title : Thai (SRT - Hotstar)
    Language : Thai
    Default : Yes
    Forced : No





    Download:filecondo
    Lightyear.2022.1080p.WEB-DL.DDP5.1.Atmos.H.264.mkv
    http://www.filecondo.com/dl.php?f=l5cadd1OjaYv
    Lightyear.2022.IMAX.1080p.DSNP.WEB-DL.DDP5.1.Atmos.H.264.mkv
    http://www.filecondo.com/dl.php?f=nd4a981OjemV
    Lightyear_(2022).mkv
    http://www.filecondo.com/dl.php?f=v61f231Ojw3I

    Download:cornfile
    Lightyear.2022.1080p.WEB-DL.DDP5.1.Atmos.H.264.mkv - 8.0 GB
    Lightyear.2022.IMAX.1080p.DSNP.WEB-DL.DDP5.1.Atmos.H.264.mkv - 5.8 GB
    Lightyear (2022).mkv - 2.6 GB

  2. The Following 4 Users Say Thank You to Duckload.us For This Useful Post:

    bigbang06 (08-03-2022), jackjangri (08-07-2022), sawara (08-04-2022), Wesker_TOT (08-04-2022)

  3. #2
    Senior Member
    สมัครเมื่อ
    Dec 2013
    โพสต์
    3,801
    Thanks
    5,706
    Thanked 0 Times in 0 Posts
    ขอบคุณครับ...

  4. #3
    Senior Member
    สมัครเมื่อ
    Dec 2013
    โพสต์
    651
    Thanks
    599
    Thanked 0 Times in 0 Posts
    ขอบคุณครับบ

  5. #4
    I'm donate !
    สมัครเมื่อ
    Jun 2011
    โพสต์
    471
    Thanks
    624
    Thanked 40 Times in 29 Posts
    ขอบคุณครับ...

+ ตอบกลับกระทู้

ข้อมูลกระทู้

Users Browsing this Thread

ในขณะนี้มี 1 ท่านดูกระทู้อยู่. (0 สมาชิกและ 1 ผู้เยี่ยมชม)

     

กฎการโพสต์ข้อความ

  • ท่าน ไม่สามารถ ตั้งกระทู้ใหม่ได้
  • ท่าน ไม่สามารถ ตอบกระทู้ได้
  • ท่าน ไม่สามารถ แนบไฟล์ได้
  • ท่าน ไม่สามารถ แก้ไขข้อความโพสต์ได้
  • BB code สถานะ เปิด
  • Smilies สถานะ เปิด
  • [IMG] สถานะ เปิด
  • HTML สถานะ ปิด