+ ตอบกลับกระทู้
สรุปผลการค้นหา 1 ถึง 2 จากทั้งหมด 2
  1. #1
    Administrators รูปส่วนตัว Duckload.us
    สมัครเมื่อ
    Dec 2010
    โพสต์
    137,508
    Thanks
    7
    Thanked 143,447 Times in 62,405 Posts

    Thumbs up [ฝรั่ง]-Panama (2022) ปานามา -WEB-DL.EAC-3.1080p. [Modified]-[พากย์อังกฤษ 5.1 บรรยายไทย (Master)-อังกฤษ]



    เรื่องราวความขัดแย้งทางการเมืองของประเทศปานามา นำมาสู่สงครามที่เลี่ยงไม่ได้ ทางสหรัฐจึงสั่งการให้หน่วยงานซีไอเอ เข้ามาตรวจสอบพื้นที่ของปานามา ด้วยการส่งอดีตนาวิกโยธินชั้นยอดเข้ามาพัวพันธ์กับแก ๊งมาเฟียเจ้าถิ่น เพื่อสืบหาข้อมูลลับของแก๊งมาเฟียผู้อยู่เบื้องหลังน ี้

    Format : Matroska
    Format version : Version 4
    File size : 4.31 GiB
    Duration : 1 h 34 min
    Overall bit rate : 6 525 kb/s
    Encoded date : UTC 2022-08-02 13:23:29
    Writing application : mkvmerge v55.0.0 ('Waiting For Space') 64-bit
    Writing library : libebml v1.4.2 + libmatroska v1.6.4

    Video
    ID : 1
    Format : AVC
    Format/Info : Advanced Video Codec
    Format profile : [email protected]
    Format settings : CABAC / 3 Ref Frames
    Format settings, CABAC : Yes
    Format settings, Reference : 3 frames
    Codec ID : V_MPEG4/ISO/AVC
    Duration : 1 h 34 min
    Bit rate : 5 861 kb/s
    Width : 1 916 pixels
    Height : 1 036 pixels
    Display aspect ratio : 1.85:1
    Frame rate mode : Constant
    Frame rate : 23.976 (24000/1001) FPS
    Color space : YUV
    Chroma subsampling : 4:2:0
    Bit depth : 8 bits
    Scan type : Progressive
    Bits/(Pixel*Frame) : 0.123
    Stream size : 3.87 GiB (90%)
    Language : English
    Default : Yes
    Forced : No
    Color range : Limited
    Color primaries : BT.709
    Transfer characteristics : BT.709
    Matrix coefficients : BT.709

    Audio
    ID : 2
    Format : E-AC-3
    Format/Info : Enhanced AC-3
    Commercial name : Dolby Digital Plus
    Codec ID : A_EAC3
    Duration : 1 h 34 min
    Bit rate mode : Constant
    Bit rate : 640 kb/s
    Channel(s) : 6 channels
    Channel layout : L R C LFE Ls Rs
    Sampling rate : 48.0 kHz
    Frame rate : 31.250 FPS (1536 SPF)
    Compression mode : Lossy
    Stream size : 433 MiB (10%)
    Title : E-AC3 English
    Language : English
    Service kind : Complete Main
    Default : Yes
    Forced : No

    Text #1
    ID : 3
    Format : VobSub
    Muxing mode : zlib
    Codec ID : S_VOBSUB
    Codec ID/Info : Picture based subtitle format used on DVDs
    Duration : 1 h 30 min
    Bit rate : 12.2 kb/s
    Count of elements : 1076
    Stream size : 7.90 MiB (0%)
    Title : Sub Thai 1080p
    Language : Thai
    Default : No
    Forced : No

    Text #2
    ID : 4
    Format : UTF-8
    Codec ID : S_TEXT/UTF8
    Codec ID/Info : UTF-8 Plain Text
    Duration : 1 h 30 min
    Bit rate : 122 b/s
    Count of elements : 1076
    Stream size : 81.2 KiB (0%)
    Title : Sub Thai SRT
    Language : Thai
    Default : No
    Forced : No

    Text #3
    ID : 5
    Format : PGS
    Muxing mode : zlib
    Codec ID : S_HDMV/PGS
    Codec ID/Info : Picture based subtitle format used on BDs/HD-DVDs
    Duration : 1 h 30 min
    Bit rate : 35.9 kb/s
    Count of elements : 2152
    Stream size : 23.3 MiB (1%)
    Title : Sub Thai PGS
    Language : Thai
    Default : Yes
    Forced : No

    Text #4
    ID : 6
    Format : UTF-8
    Codec ID : S_TEXT/UTF8
    Codec ID/Info : UTF-8 Plain Text
    Duration : 1 h 30 min
    Bit rate : 48 b/s
    Count of elements : 962
    Stream size : 32.1 KiB (0%)
    Title : Sub English SRT
    Language : English
    Default : No
    Forced : No







    Download:filecondo
    http://www.filecondo.com/dl.php?f=d034e81OjblO
    Download:cornfile
    https://www.cornfile.com/i8veypqh3u48

  2. #2
    Senior Member
    สมัครเมื่อ
    Jun 2012
    โพสต์
    1,592
    Thanks
    0
    Thanked 1 Time in 1 Post
    ขอบคุณครับ

+ ตอบกลับกระทู้

ข้อมูลกระทู้

Users Browsing this Thread

ในขณะนี้มี 1 ท่านดูกระทู้อยู่. (0 สมาชิกและ 1 ผู้เยี่ยมชม)

     

กฎการโพสต์ข้อความ

  • ท่าน ไม่สามารถ ตั้งกระทู้ใหม่ได้
  • ท่าน ไม่สามารถ ตอบกระทู้ได้
  • ท่าน ไม่สามารถ แนบไฟล์ได้
  • ท่าน ไม่สามารถ แก้ไขข้อความโพสต์ได้
  • BB code สถานะ เปิด
  • Smilies สถานะ เปิด
  • [IMG] สถานะ เปิด
  • HTML สถานะ ปิด