+ ตอบกลับกระทู้
สรุปผลการค้นหา 1 ถึง 2 จากทั้งหมด 2
  1. #1
    Administrators รูปส่วนตัว Duckload.us
    สมัครเมื่อ
    Dec 2010
    โพสต์
    137,508
    Thanks
    7
    Thanked 143,447 Times in 62,405 Posts

    Thumbs up [ฝรั่ง]-The.Princess.2022.1080p.DSNP-ซับไทยมาสเตอร์-WEB-DL.AC-3.1080p. [Rip]-[Soundtrack บรรยายไทย (Master)]



    เจ้าหญิงหัวแข็งคนหนึ่งปฏิเสธที่จะแต่งงานกับชายโรคจ ิตผู้โหดร้าย เธอจึงถูกลักพาตัวไปขังไว้ในหอคอยห่างไกลในปราสาทของ พ่อเธอ

    Format : Matroska
    Format version : Version 4 / Version 2
    File size : 4.38 GiB
    Duration : 1 h 33 min
    Overall bit rate mode : Variable
    Overall bit rate : 6 666 kb/s
    Movie name : [email protected]
    Encoded date : UTC 2022-07-30 11:56:04
    Writing application : mkvmerge v63.0.0 ('Everything') 64-bit
    Writing library : libebml v1.4.2 + libmatroska v1.6.4

    Video
    ID : 1
    Format : AVC
    Format/Info : Advanced Video Codec
    Format profile : [email protected]
    Format settings, CABAC : Yes
    Format settings, RefFrames : 4 frames
    Codec ID : V_MPEG4/ISO/AVC
    Duration : 1 h 33 min
    Bit rate mode : Variable
    Bit rate : 6 397 kb/s
    Maximum bit rate : 12.7 Mb/s
    Width : 1 920 pixels
    Height : 1 080 pixels
    Display aspect ratio : 16:9
    Frame rate mode : Constant
    Frame rate : 24.000 FPS
    Color space : YUV
    Chroma subsampling : 4:2:0
    Bit depth : 8 bits
    Scan type : Progressive
    Bits/(Pixel*Frame) : 0.129
    Stream size : 4.20 GiB (96%)
    Language : English
    Default : Yes
    Forced : No
    Color range : Limited
    Color primaries : BT.709
    Transfer characteristics : BT.709
    Matrix coefficients : BT.709

    Audio
    ID : 2
    Format : E-AC-3
    Format/Info : Enhanced Audio Coding 3
    Format settings, Endianness : Big
    Codec ID : A_EAC3
    Duration : 1 h 33 min
    Bit rate mode : Constant
    Bit rate : 256 kb/s
    Channel(s) : 6 channels
    Channel positions : Front: L C R, Side: L R, LFE
    Sampling rate : 48.0 kHz
    Frame rate : 187.500 FPS (256 SPF)
    Compression mode : Lossy
    Stream size : 172 MiB (4%)
    Title : English-DDP 5.1
    Language : English
    Service kind : Complete Main
    Default : Yes
    Forced : Yes

    Text #1
    ID : 3
    Format : PGS
    Muxing mode : zlib
    Codec ID : S_HDMV/PGS
    Codec ID/Info : Picture based subtitle format used on BDs/HD-DVDs
    Duration : 1 h 31 min
    Bit rate : 18.2 kb/s
    Count of elements : 1338
    Stream size : 12.0 MiB (0%)
    Title : Thai-PGS From Hotstar [Angsana]
    Language : Thai
    Default : Yes
    Forced : Yes

    Text #2
    ID : 4
    Format : VobSub
    Muxing mode : zlib
    Codec ID : S_VOBSUB
    Codec ID/Info : Picture based subtitle format used on DVDs
    Duration : 1 h 31 min
    Bit rate : 4 397 b/s
    Count of elements : 669
    Stream size : 2.89 MiB (0%)
    Title : Thai-VOBSUB From Hotstar [Angsana]
    Language : Thai
    Default : Yes
    Forced : No

    Text #3
    ID : 5
    Format : UTF-8
    Codec ID : S_TEXT/UTF8
    Codec ID/Info : UTF-8 Plain Text
    Duration : 1 h 31 min
    Bit rate : 62 b/s
    Count of elements : 669
    Stream size : 42.4 KiB (0%)
    Title : Thai-SRT From Hotstar
    Language : Thai
    Default : Yes
    Forced : No

    Text #4
    ID : 6
    Format : UTF-8
    Codec ID : S_TEXT/UTF8
    Codec ID/Info : UTF-8 Plain Text
    Duration : 1 h 25 min
    Bit rate : 35 b/s
    Count of elements : 878
    Stream size : 22.2 KiB (0%)
    Title : English-SRT From Hotstar
    Language : English
    Default : Yes
    Forced : No

    Menu
    01:27:45.583 : en:Credits














    Download:filecondo
    http://www.filecondo.com/dl.php?f=qf68c41Oj9Tg
    Download:cornfile
    https://www.cornfile.com/a8muqsd1qffm

  2. The Following 3 Users Say Thank You to Duckload.us For This Useful Post:

    jackjangri (08-07-2022), lonin (08-03-2022), mettset (08-04-2022)

  3. #2
    I'm donate !
    สมัครเมื่อ
    Jun 2011
    โพสต์
    471
    Thanks
    624
    Thanked 40 Times in 29 Posts
    thankyou...

+ ตอบกลับกระทู้

ข้อมูลกระทู้

Users Browsing this Thread

ในขณะนี้มี 1 ท่านดูกระทู้อยู่. (0 สมาชิกและ 1 ผู้เยี่ยมชม)

     

กฎการโพสต์ข้อความ

  • ท่าน ไม่สามารถ ตั้งกระทู้ใหม่ได้
  • ท่าน ไม่สามารถ ตอบกระทู้ได้
  • ท่าน ไม่สามารถ แนบไฟล์ได้
  • ท่าน ไม่สามารถ แก้ไขข้อความโพสต์ได้
  • BB code สถานะ เปิด
  • Smilies สถานะ เปิด
  • [IMG] สถานะ เปิด
  • HTML สถานะ ปิด