+ ตอบกลับกระทู้
สรุปผลการค้นหา 1 ถึง 3 จากทั้งหมด 3
  1. #1
    Administrators รูปส่วนตัว Duckload.us
    สมัครเมื่อ
    Dec 2010
    โพสต์
    137,508
    Thanks
    7
    Thanked 143,446 Times in 62,405 Posts

    Thumbs up [ฝรั่ง]-Minions 2: The Rise of Gru (2022) : มินเนี่ยน 2 -AMZN.WEB-DL.H.264.1080p. [Master]-[Soundtrack บรรยายไทย (แปล Google Translate)]



    เรื่องย่อ
    หลังจากที่พวกมินเนี่ยนออกตามหาบรรดาวายร้ายสุดโฉดมา ทุกยุคทุกสมัย ปั่นป่วนจนมาเจอกับหนูน้อย กรู เด็กหนุ่มน้อยที่วาดฝันจะกลายเป็นวายร้ายที่ยิ่งใหญ่ ที่สุดในโลก พร้อมด้วยบรรดาลูกสมุนตัวสีเหลืองที่เหมือนจะช่วย แต่ดันป่วนมากกว่า คราวนี้กรูได้เดินทางไปยังสถานที่เป็นเหมือนสภาของบร รดาวายร้ายที่ชื่อ Vicious 6 เพื่อต้องการเป็นวายร้ายเต็มตัว แต่ด้วยความที่เขายังเป็นเด็ก ทำให้บรรดาวายร้ายไม่ยอมรับ

    แน่นอนว่าความฝันของกรูแน่วแน่เกินสิ่งใด เขาเลยตัดสินใจพิสูจน์ตัวเองด้วยการขโมยอัญมณีล้ำค่า ของวายร้ายตัวแม่ Belle Bottom ทำให้วายร้ายทั้งหมดแห่ง Vicious 6 ออกตามล่าเขาในทันที ไม่ว่าจะเป็นวายร้ายจอมพลัง, แม่ชีสายบู๊ผู้มีกระบองสองท่อนเป็นอาวุธ หรือจะเป็นมนุษย์ที่มีแขนเป็นก้ามปู แต่กรูก็ไม่น้อยหน้า เพราะเขามีบรรดาเหล่ามินเนียนและจักรยานติดไอพ่นคู่ใ จ กรูตัดสินใจใช้แผนแยกย้ายหลอกล่อ โดยให้หนึ่งในมินเนียนที่ชื่อ อ็อตโต้ เอาอัญมณีหนีแยกไปอีกทาง ส่วนเขาจะเป็นคนล่อพวกวายร้ายเอง

    ทุกอย่างดูเหมือนจะเป็นไปตามแผน และกรูกำลังจะได้ประกาศศักดาเป็นวายร้ายหน้าใหม่ที่ร ้ายกาจที่สุด แต่เมื่อเจ้าอ็อตโต้เอาอัญมณีออกมาให้ มันกลับกลายเป็นก้อนหินเด็กเล่น ซึ่งเจ้าอ็อตโต้ก็ได้เล่าถึงที่มาที่ไปว่าระหว่างหลบ หนี มันก็ดันหลงไปอยู่ในบ้านของเด็กคนหนึ่งที่กำลังจัดงา นวันเกิด แล้วบังเอิญไปเห็นเจ้าก้อนหินเด็กเล่นชิ้นนี้เข้า มันตกหลุมรักในทันที ก่อนจะตัดสินใจแลกอัญมณีกับก้อนหินเด็กเล่น สำหรับกรูแล้วนี่ก็เป็นเหมือนการเอาอนาคตของเขาไปโยน ทิ้งเลยทีเดียว เรื่องราวความปั่นป่วนจะเป็นอย่างไร ต้องรอติดตามกันต่อไป

    Format : Matroska
    Format version : Version 4
    File size : 6.09 GiB
    Duration : 1 h 27 min
    Overall bit rate : 9 951 kb/s
    Encoded date : UTC 2022-08-03 18:58:52
    Writing application : mkvmerge v35.0.0 ('All The Love In The World') 64-bit
    Writing library : libebml v1.3.9 + libmatroska v1.5.2

    Video
    ID : 1
    Format : AVC
    Format/Info : Advanced Video Codec
    Format profile : [email protected]
    Format settings : CABAC / 4 Ref Frames
    Format settings, CABAC : Yes
    Format settings, Reference frames : 4 frames
    Codec ID : V_MPEG4/ISO/AVC
    Duration : 1 h 27 min
    Bit rate mode : Constant
    Bit rate : 9 309 kb/s
    Nominal bit rate : 10 000 kb/s
    Width : 1 920 pixels
    Height : 800 pixels
    Display aspect ratio : 2.40:1
    Frame rate mode : Constant
    Frame rate : 23.976 (24000/1001) FPS
    Color space : YUV
    Chroma subsampling : 4:2:0
    Bit depth : 8 bits
    Scan type : Progressive
    Bits/(Pixel*Frame) : 0.253
    Stream size : 5.70 GiB (94%)
    Default : Yes
    Forced : No
    Color range : Limited
    Color primaries : BT.709
    Transfer characteristics : BT.709
    Matrix coefficients : BT.709

    Audio
    ID : 2
    Format : E-AC-3
    Format/Info : Enhanced AC-3
    Commercial name : Dolby Digital Plus
    Codec ID : A_EAC3
    Duration : 1 h 27 min
    Bit rate mode : Constant
    Bit rate : 640 kb/s
    Channel(s) : 6 channels
    Channel layout : L R C LFE Ls Rs
    Sampling rate : 48.0 kHz
    Frame rate : 31.250 FPS (1536 SPF)
    Compression mode : Lossy
    Stream size : 401 MiB (6%)
    Language : English
    Service kind : Complete Main
    Default : Yes
    Forced : No

    Text
    ID : 3
    Format : UTF-8
    Codec ID : S_TEXT/UTF8
    Codec ID/Info : UTF-8 Plain Text
    Duration : 1 h 26 min
    Bit rate : 103 b/s
    Count of elements : 1220
    Stream size : 65.7 KiB (0%)
    Language : Thai
    Default : Yes
    Forced : No





    Download:filecondo
    http://www.filecondo.com/dl.php?f=qaed541Ojw7z
    Download:cornfile
    https://www.cornfile.com/4c28khtorwzy

  2. The Following 2 Users Say Thank You to Duckload.us For This Useful Post:

    agg001 (08-04-2022), Wesker_TOT (08-05-2022)

  3. #2
    Senior Member
    สมัครเมื่อ
    Jan 2011
    โพสต์
    811
    Thanks
    1,105
    Thanked 0 Times in 0 Posts
    ขอบคุณครับ

  4. #3
    Senior Member
    สมัครเมื่อ
    Dec 2013
    โพสต์
    3,801
    Thanks
    5,706
    Thanked 0 Times in 0 Posts
    ขอบคุณครับ...

+ ตอบกลับกระทู้

ข้อมูลกระทู้

Users Browsing this Thread

ในขณะนี้มี 1 ท่านดูกระทู้อยู่. (0 สมาชิกและ 1 ผู้เยี่ยมชม)

     

กฎการโพสต์ข้อความ

  • ท่าน ไม่สามารถ ตั้งกระทู้ใหม่ได้
  • ท่าน ไม่สามารถ ตอบกระทู้ได้
  • ท่าน ไม่สามารถ แนบไฟล์ได้
  • ท่าน ไม่สามารถ แก้ไขข้อความโพสต์ได้
  • BB code สถานะ เปิด
  • Smilies สถานะ เปิด
  • [IMG] สถานะ เปิด
  • HTML สถานะ ปิด