คาร์เตอร์ ที่ปลุกให้ตื่นขึ้นในช่วงสองเดือนของโรคระบาดร้ายแรง ที่เกิดจาก DMZ ที่ทำลายล้างสหรัฐฯ และเกาหลีเหนือไปแล้ว ผู้ที่ไม่จำอดีตของเขาพบอุปกรณ์ลึกลับในหัวของเขา และระเบิดร้ายแรงในปากของเขา เสียงใน หูของเขาสั่งให้เขาหลีกเลี่ยงการถูกฆ่าและเขาก็ถูกโย นเข้าสู่ปฏิบัติการลึกลับในขณะที่ซีไอเอและการทำรัฐป ระหารของเกาหลีเหนือไล่ล่าเขาอย่างใกล้ชิด


Format : Matroska

Format version : Version 4

File size : 3.99 GiB

Duration : 2 h 14 min

Overall bit rate : 4 259 kb/s

Movie name : Carter.2022.1080p.DDP5.1.H264_©GOLD CUP™_WWW.TT-TORRENT.COM

Video

ID : 1

Format : AVC

Format/Info : Advanced Video Codec

Format profile : [email protected]

Format settings : CABAC / 1 Ref Frames

Format settings, CABAC : Yes

Format settings, Reference : 1 frame

Format settings, GOP : M=1, N=25

Codec ID : V_MPEG4/ISO/AVC

Duration : 2 h 14 min

Bit rate mode : Constant

Bit rate : 2 057 kb/s

Width : 1 920 pixels

Height : 1 080 pixels

Display aspect ratio : 16:9

Frame rate mode : Constant

Frame rate : 23.976 (24000/1001) FPS

Color space : YUV

Chroma subsampling : 4:2:0

Bit depth : 8 bits

Scan type : Progressive

Bits/(Pixel*Frame) : 0.041

Stream size : 1.93 GiB (48%)

Title : Carter.2022.1080p.DDP5.1.H264_©GOLD CUP™

Language : English

Default : Yes

Forced : No

Audio #1

ID : 2

Format : E-AC-3

Format/Info : Enhanced AC-3

Commercial name : Dolby Digital Plus

Codec ID : A_EAC3

Duration : 2 h 14 min

Bit rate mode : Constant

Bit rate : 640 kb/s

Channel(s) : 6 channels

Channel layout : L R C LFE Ls Rs

Sampling rate : 48.0 kHz

Frame rate : 31.250 FPS (1536 SPF)

Compression mode : Lossy

Stream size : 614 MiB (15%)

Title : Th-DDP 5.1

Language : Thai

Service kind : Complete Main

Default : Yes

Forced : Yes

Audio #2

ID : 3

Format : E-AC-3 JOC

Format/Info : Enhanced AC-3 with Joint Object Coding

Commercial name : Dolby Digital Plus with Dolby Atmos

Codec ID : A_EAC3

Duration : 2 h 14 min

Bit rate mode : Constant

Bit rate : 768 kb/s

Channel(s) : 6 channels

Channel layout : L R C LFE Ls Rs

Sampling rate : 48.0 kHz

Frame rate : 31.250 FPS (1536 SPF)

Compression mode : Lossy

Stream size : 737 MiB (18%)

Title : Kor-DDP 5.1+Atmos

Language : Korean

Service kind : Complete Main

Default : Yes

Forced : No

Complexity index : 16

Number of dynamic objects : 15

Bed channel count : 1 channel

Bed channel configuration : LFE

Audio #3

ID : 4

Format : E-AC-3 JOC

Format/Info : Enhanced AC-3 with Joint Object Coding

Commercial name : Dolby Digital Plus with Dolby Atmos

Codec ID : A_EAC3

Duration : 2 h 14 min

Bit rate mode : Constant

Bit rate : 768 kb/s

Channel(s) : 6 channels

Channel layout : L R C LFE Ls Rs

Sampling rate : 48.0 kHz

Frame rate : 31.250 FPS (1536 SPF)

Compression mode : Lossy

Stream size : 737 MiB (18%)

Title : En-DDP 5.1+Atmos

Language : English

Service kind : Complete Main

Default : Yes

Forced : No

Complexity index : 16

Number of dynamic objects : 15

Bed channel count : 1 channel

Bed channel configuration : LFE

Text #1

ID : 5

Format : PGS

Muxing mode : zlib

Codec ID : S_HDMV/PGS

Codec ID/Info : Picture based subtitle format used on BDs/HD-DVDs

Duration : 2 h 12 min

Bit rate : 24.8 kb/s

Frame rate : 0.274 FPS

Count of elements : 2182

Stream size : 23.6 MiB (1%)

Title : Th.3.100.90.White

Language : Thai

Default : No

Forced : No

Text #2

ID : 6

Format : PGS

Muxing mode : zlib

Codec ID : S_HDMV/PGS

Codec ID/Info : Picture based subtitle format used on BDs/HD-DVDs

Duration : 2 h 7 min

Bit rate : 25.4 kb/s

Frame rate : 0.277 FPS

Count of elements : 2116

Stream size : 23.1 MiB (1%)

Title : EN.110.3.83.Yellow

Language : English

Default : No

Forced : No



Download:filecondo
http://www.filecondo.com/dl.php?f=L5b3c81OkTM8
Download:cornfile
https://www.cornfile.com/ehzjyz221ech