+ ตอบกลับกระทู้
สรุปผลการค้นหา 1 ถึง 4 จากทั้งหมด 4
  1. #1
    Administrators รูปส่วนตัว Duckload.us
    สมัครเมื่อ
    Dec 2010
    โพสต์
    138,365
    Thanks
    7
    Thanked 144,610 Times in 62,843 Posts

    Lightbulb [เกาหลี]-Full House (2004) สะดุดรักที่พักใจ Ep.01-16 จบ [1080p][พากย์ไทย บรรยายไทย]-WEB-DL.H.264.1080p. [Hi-def rip from Master]-[พากย์ไทย บรรยายไทย]



    ฮันจีอึน (รับบทโดย ซงฮเยคโย) สาวโสดผู้ใช้ชีวิตตามลำพังในบ้านริมทะเลมรดกของครอบค รัว วันหนึ่งเธอได้รับตั๋วเที่ยวบินฟรีไปเซี่ยงไฮ้จากเพื ่อนสนิท ทำให้เธอได้มานั่งเครื่องบินสุดหรูคู่กับ อียองแจ (รับบทโดย เรน) ซูเปอร์สตาร์หนุ่มชื่อดัง แต่ด้วยความเปิ่นของจีอึนทำให้เกิดเรื่องกับดาราหนุ่ มแบบไม่ได้ตั้งใจ ฮันจีอึนคิดว่าเธอคงไม่มีทางได้กลับมาพบกับหนุ่มคนนี ้อีกอย่างแน่นอน แต่เมื่อมาถึงกรุงโซลจีอึนกลับพบข่าวร้ายว่าตัวเองถู กเพื่อนสนิทหักหลัง เอาบ้านของเธอไปขายต่อให้คนอื่นแล้ว และบังเอิญว่าคนที่ซื้อต่อก็คือ อียองแจ เพื่อบ้านที่รักเธอยอมทำทุกอย่างแลกกับการได้อยู่อาศ ัยที่นี่ต่อ จนเรื่องวุ่นวายกลายเป็นความรักแบบไม่ทันรู้ตัว








    Video
    ID : 1
    Format : AVC
    Format/Info : Advanced Video Codec
    Format profile : [email protected]
    Format settings : CABAC / 4 Ref Frames
    Format settings, CABAC : Yes
    Format settings, Reference : 4 frames
    Codec ID : V_MPEG4/ISO/AVC
    Duration : 1 h 11 min
    Bit rate : 4 000 kb/s
    Width : 1 920 pixels
    Height : 1 080 pixels
    Display aspect ratio : 16:9
    Frame rate mode : Constant
    Frame rate : 29.970 (30000/1001) FPS
    Color space : YUV
    Chroma subsampling : 4:2:0
    Bit depth : 8 bits
    Scan type : Progressive
    Bits/(Pixel*Frame) : 0.064
    Stream size : 2.01 GiB (94%)
    Title : Monomax
    Writing library : x264 core 148
    Encoding settings : cabac=1 / ref=3 / deblock=1:0:0 / analyse=0x3:0x113 / me=hex / subme=7 / psy=1 / psy_rd=1.00:0.00 / mixed_ref=1 / me_range=16 / chroma_me=1 / trellis=1 / 8x8dct=1 / cqm=0 / deadzone=21,11 / fast_pskip=1 / chroma_qp_offset=-2 / threads=18 / lookahead_threads=3 / sliced_threads=0 / nr=0 / decimate=1 / interlaced=0 / bluray_compat=0 / constrained_intra=0 / bframes=3 / b_pyramid=2 / b_adapt=1 / b_bias=0 / direct=1 / weightb=1 / open_gop=0 / weightp=2 / keyint=240 / keyint_min=121 / scenecut=40 / intra_refresh=0 / rc_lookahead=40 / rc=abr / mbtree=1 / bitrate=4000 / ratetol=1.0 / qcomp=0.60 / qpmin=0 / qpmax=69 / qpstep=4 / ip_ratio=1.40 / aq=1:1.00
    Language : Thai
    Default : Yes
    Forced : No

    Audio #1
    ID : 2
    Format : AAC LC
    Format/Info : Advanced Audio Codec Low Complexity
    Codec ID : A_AAC-2
    Duration : 1 h 11 min
    Bit rate : 128 kb/s
    Channel(s) : 2 channels
    Channel layout : L R
    Sampling rate : 48.0 kHz
    Frame rate : 46.875 FPS (1024 SPF)
    Compression mode : Lossy
    Stream size : 65.8 MiB (3%)
    Language : Thai
    Default : Yes
    Forced : No

    Audio #2
    ID : 3
    Format : AAC LC
    Format/Info : Advanced Audio Codec Low Complexity
    Codec ID : A_AAC-2
    Duration : 1 h 11 min
    Bit rate : 128 kb/s
    Channel(s) : 2 channels
    Channel layout : L R
    Sampling rate : 48.0 kHz
    Frame rate : 46.875 FPS (1024 SPF)
    Compression mode : Lossy
    Stream size : 65.8 MiB (3%)
    Language : Korean
    Default : No
    Forced : No

    Text
    ID : 4
    Format : UTF-8
    Codec ID : S_TEXT/UTF8
    Codec ID/Info : UTF-8 Plain Text
    Duration : 1 h 8 min
    Bit rate : 103 b/s
    Frame rate : 0.175 FPS
    Count of elements : 719
    Stream size : 52.0 KiB (0%)
    Title : Thai Monomax
    Language : Thai
    Default : Yes
    Forced : No


    Full_House_(2004).S01E16.1080p.WEB-DL.H.264.AAC-(Spark751).mkv
    http://www.filecondo.com/dl.php?f=q5decd1Olwq4

    Full_House_(2004).S01E15.1080p.WEB-DL.H.264.AAC-(Spark751).mkv
    http://www.filecondo.com/dl.php?f=ta20f91Olwpb

    Full_House_(2004).S01E14.1080p.WEB-DL.H.264.AAC-(Spark751).mkv
    http://www.filecondo.com/dl.php?f=zbb06f1Olwn9

    Full_House_(2004).S01E13.1080p.WEB-DL.H.264.AAC-(Spark751).mkv
    http://www.filecondo.com/dl.php?f=mb1e3c1Olwl1

    Full_House_(2004).S01E12.1080p.WEB-DL.H.264.AAC-(Spark751).mkv
    http://www.filecondo.com/dl.php?f=N790a11OlwiS

    FullHouseS01E11.1080p.WEB-DL.H.264.AAC-(Spark751).mkv
    http://www.filecondo.com/dl.php?f=If800e1OqVpZ

    Full_House_(2004).S01E10.1080p.WEB-DL.H.264.AAC-(Spark751).mkv
    http://www.filecondo.com/dl.php?f=I859fb1OlwhV

    Full_House_(2004).S01E09.1080p.WEB-DL.H.264.AAC-(Spark751).mkv
    http://www.filecondo.com/dl.php?f=Q3c0a21OlwgW

    Full_House_(2004).S01E08.1080p.WEB-DL.H.264.AAC-(Spark751).mkv
    http://www.filecondo.com/dl.php?f=61bb7e1OlwfZ

    FullHouseS01E07.1080p.WEB-DL.H.264.AAC-(Spark751).mkv
    http://www.filecondo.com/dl.php?f=p1749d1OqVmv

    Full_House_(2004).S01E06.1080p.WEB-DL.H.264.AAC-(Spark751).mkv
    http://www.filecondo.com/dl.php?f=tf30561Olwf3

    Full_House_(2004).S01E05.1080p.WEB-DL.H.264.AAC-(Spark751).mkv
    http://www.filecondo.com/dl.php?f=dedd241Olwe5

    Full_House_(2004).S01E04.1080p.WEB-DL.H.264.AAC-(Spark751).mkv
    http://www.filecondo.com/dl.php?f=G70ec01Olwd6

    Full_House_(2004).S01E03.1080p.WEB-DL.H.264.AAC-(Spark751).mkv
    http://www.filecondo.com/dl.php?f=b5dc961Olwc7

    Full_House_(2004).S01E02.1080p.WEB-DL.H.264.AAC-(Spark751).mkv
    http://www.filecondo.com/dl.php?f=Sd2ef41Olwba

    Full_House_(2004).S01E01.1080p.WEB-DL.H.264.AAC-(Spark751).mkv
    http://www.filecondo.com/dl.php?f=55a6631Olwac

  2. The Following 2 Users Say Thank You to Duckload.us For This Useful Post:

    F2UMaH6398 (08-26-2022), kappa (08-21-2022)

  3. #2
    Member
    สมัครเมื่อ
    Apr 2014
    โพสต์
    39
    Thanks
    0
    Thanked 0 Times in 0 Posts
    ขาดตอนที่ 7 และ 11

  4. #3
    Member
    สมัครเมื่อ
    Apr 2012
    โพสต์
    31
    Thanks
    1
    Thanked 0 Times in 0 Posts
    ขาดตอน 7 กับ 11 นะคะ รบกวนเพิ่มให้หน่อยนะคะ

  5. #4
    Administrators รูปส่วนตัว Duckload.us
    สมัครเมื่อ
    Dec 2010
    โพสต์
    138,365
    Thanks
    7
    Thanked 144,610 Times in 62,843 Posts
    อ้างอิง โพสต์ต้นฉบับโดยคุณ pk_meen ดูโพสต์
    ขาดตอน 7 กับ 11 นะคะ รบกวนเพิ่มให้หน่อยนะคะ

    เรียนแจ้ง แก้ไขแล้วครับ

+ ตอบกลับกระทู้

ข้อมูลกระทู้

Users Browsing this Thread

ในขณะนี้มี 1 ท่านดูกระทู้อยู่. (0 สมาชิกและ 1 ผู้เยี่ยมชม)

     

กฎการโพสต์ข้อความ

  • ท่าน ไม่สามารถ ตั้งกระทู้ใหม่ได้
  • ท่าน ไม่สามารถ ตอบกระทู้ได้
  • ท่าน ไม่สามารถ แนบไฟล์ได้
  • ท่าน ไม่สามารถ แก้ไขข้อความโพสต์ได้
  • BB code สถานะ เปิด
  • Smilies สถานะ เปิด
  • [IMG] สถานะ เปิด
  • HTML สถานะ ปิด