+ ตอบกลับกระทู้
หน้า 1 จากทั้งหมด 2 หน้า 1 2 หน้าสุดท้ายหน้าสุดท้าย
สรุปผลการค้นหา 1 ถึง 10 จากทั้งหมด 15
  1. #1
    Administrators รูปส่วนตัว Duckload.us
    สมัครเมื่อ
    Dec 2010
    โพสต์
    138,184
    Thanks
    7
    Thanked 144,397 Times in 62,757 Posts

    Thumbs up [ฝรั่ง]-[HBO] House of the Dragon (2022) Season 1 Ep.1-6 [เสียง:อังกฤษ AC-3 5.1-ไทย AC-3 2.0][บรรยาย: ไทย PGS/SRT-อังกฤษ SRT]-WEB-DL.H.264.1080p. [From HD-TV]-[พากย์ไทย บรรยายไทย]








    เรื่องย่อของซีรีส์ House of the Dragon
    ซีรีส์เรื่องนี้สร้างขึ้นมาจากนิยายแฟนตาซีขายดีของ George RR Martin เรื่อง “Fire & Blood” เล่าถึงช่วง 200 ปีก่อนเหตุการณ์มหาศึกชิงบัลลังก์ โดยครั้งนี้เนื้อหาของซีรีส์จะให้ความสนใจกับเรื่องร าวความขัดแย้งภายในตระกูล Targaryen เป็นหลัก ว่าด้วยการแก่งแย่งอำนาจของพี่น้องสายเลือดมังกร ชนวนเหตุเกิดจากการที่ Princess Rhaenyra ถูกวางตัวให้เป็นรัชทายาทผู้สืบทอดบัลลังก์เหล็กต่อจ าก King Viserys I แต่ตามธรรมเนียมดั้งเดิมของ Westeros ผู้หญิงไม่เคยได้มีโอกาสขึ้นครองบัลลังก์เหล็กมาก่อน แม้แต่ในยุคของบิดาเธอก็เช่นกัน แทนที่ Princess Rhaenys หลานสาวคนโตของพระราชาองค์ก่อนที่อายุมากกว่า Viserys จะได้ขึ้นครองราชย์ แต่เนื่องจากเธอเป็นผู้หญิงจึงทำให้สิทธิ์ในการขึ้นค รองบัลลังก์เหล็กตกเป็นของ Viserys แทน ด้วยเหตุนี้เองจึงทำให้ผู้ชายที่มีสิทธิ์ในบัลลังก์พ อๆ กับ Rhaenyra เกิดความไม่พอใจที่จะต้องมาทนเห็นผู้หญิงก้าวขึ้นมาป กครองอาณาจักร จนกลายเป็นสงครามกลางเมืองครั้งใหญ่ที่จะนำพาอาณาจัก รในยุครุ่งเรืองที่สุดลงมาอยู่ในจุดที่ไม่มีใครคาดคิ ด


    Video
    ID : 1
    Format : AVC
    Format/Info : Advanced Video Codec
    Format profile : [email protected]
    Format settings, CABAC : Yes
    Format settings, RefFrames : 4 frames
    Codec ID : V_MPEG4/ISO/AVC
    Duration : 1 h 5 min
    Bit rate mode : Variable
    Bit rate : 8 250 kb/s
    Maximum bit rate : 12.4 Mb/s
    Width : 1 920 pixels
    Height : 1 080 pixels
    Display aspect ratio : 16:9
    Frame rate mode : Constant
    Frame rate : 23.976 (24000/1001) FPS
    Color space : YUV
    Chroma subsampling : 4:2:0
    Bit depth : 8 bits
    Scan type : Progressive
    Bits/(Pixel*Frame) : 0.166
    Stream size : 3.76 GiB (88%)
    Writing library : x264 core 157 r2965 861cec4
    Encoding settings : cabac=1 / ref=4 / deblock=1:0:0 / analyse=0x3:0x113 / me=hex / subme=7 / psy=1 / psy_rd=1.00:0.00 / mixed_ref=1 / me_range=16 / chroma_me=1 / trellis=1 / 8x8dct=1 / cqm=0 / deadzone=21,11 / fast_pskip=1 / chroma_qp_offset=-2 / threads=34 / lookahead_threads=5 / sliced_threads=0 / nr=0 / decimate=1 / interlaced=0 / bluray_compat=0 / constrained_intra=0 / bframes=3 / b_pyramid=2 / b_adapt=1 / b_bias=0 / direct=1 / weightb=1 / open_gop=0 / weightp=2 / keyint=96 / keyint_min=96 / scenecut=40 / intra_refresh=0 / rc_lookahead=40 / rc=2pass / mbtree=1 / bitrate=8250 / ratetol=1.0 / qcomp=0.60 / qpmin=0 / qpmax=69 / qpstep=4 / cplxblur=20.0 / qblur=0.5 / vbv_maxrate=12375 / vbv_bufsize=6187 / nal_hrd=vbr / filler=0 / ip_ratio=1.40 / aq=1:1.00
    Default : Yes
    Forced : No
    Color range : Limited
    Color primaries : BT.709
    Transfer characteristics : BT.709
    Matrix coefficients : BT.709

    Audio #1
    ID : 2
    Format : E-AC-3
    Format/Info : Enhanced Audio Coding 3
    Format profile : E-AC-3+Atmos / E-AC-3
    Format settings, Endianness : Big
    Codec ID : A_EAC3
    Duration : 1 h 5 min
    Bit rate mode : Constant
    Bit rate : 768 kb/s
    Channel(s) : 15 objects / 6 channels
    Channel positions : 15 objects / Front: L C R, Side: L R, LFE
    Sampling rate : 48.0 kHz
    Frame rate : 187.500 FPS (256 SPF)
    Compression mode : Lossy
    Stream size : 360 MiB (8%)
    Title : [English-AC-3 5.1]
    Language : English
    Service kind : Complete Main
    Default : No
    Forced : No

    Audio #2
    ID : 3
    Format : AC-3
    Format/Info : Audio Coding 3
    Format settings, Endianness : Big
    Codec ID : A_AC3
    Duration : 1 h 5 min
    Bit rate mode : Constant
    Bit rate : 320 kb/s
    Channel(s) : 2 channels
    Channel positions : Front: L R
    Sampling rate : 48.0 kHz
    Frame rate : 31.250 FPS (1536 SPF)
    Bit depth : 16 bits
    Compression mode : Lossy
    Stream size : 150 MiB (3%)
    Title : [Thai-AC-3 2.0]
    Language : Thai
    Service kind : Complete Main
    Default : Yes
    Forced : No

    Text #1
    ID : 4
    Format : PGS
    Muxing mode : zlib
    Codec ID : S_HDMV/PGS
    Codec ID/Info : Picture based subtitle format used on BDs/HD-DVDs
    Duration : 1 h 3 min
    Bit rate : 52.6 kb/s
    Count of elements : 1290
    Stream size : 24.0 MiB (1%)
    Title : [Thai HBO PGS]
    Language : Thai
    Default : Yes
    Forced : No

    Text #2
    ID : 5
    Format : UTF-8
    Codec ID : S_TEXT/UTF8
    Codec ID/Info : UTF-8 Plain Text
    Duration : 1 h 3 min
    Bit rate : 131 b/s
    Count of elements : 645
    Stream size : 61.3 KiB (0%)
    Title : Thai
    Language : Thai
    Default : No
    Forced : No

    Text #3
    ID : 6
    Format : UTF-8
    Codec ID : S_TEXT/UTF8
    Codec ID/Info : UTF-8 Plain Text
    Duration : 1 h 2 min
    Bit rate : 52 b/s
    Count of elements : 690
    Stream size : 24.1 KiB (0%)
    Title : English
    Language : English
    Default : No
    Forced : No

    Text #4
    ID : 7
    Format : UTF-8
    Codec ID : S_TEXT/UTF8
    Codec ID/Info : UTF-8 Plain Text
    Duration : 1 h 5 min
    Bit rate : 60 b/s
    Count of elements : 946
    Stream size : 28.7 KiB (0%)
    Title : English [SDH]
    Language : English
    Default : No
    Forced : No

    Menu
    00:00:00.000 : en:Chapter 1
    01:03:27.000 : en:Credits








    Download:filecondo
    1 http://www.filecondo.com/dl.php?f=3efdf81Oq6iU
    2 http://www.filecondo.com/dl.php?f=x1ea2b1OsDAV
    2 http://www.filecondo.com/dl.php?f=v1ea2b1Ou2sP
    2 http://www.filecondo.com/dl.php?f=C47cf41Otfr7
    3 http://www.filecondo.com/dl.php?f=2ccf061OvvI3
    4 http://www.filecondo.com/dl.php?f=c9e20c1OxH5c
    5 http://www.filecondo.com/dl.php?f=Y0ece21OAA7e
    6 http://www.filecondo.com/dl.php?f=o390a51OCS9S

    *************************************
    House.of.the.Dragon.S01E06.The.Princess.and.the.Qu een.1080p.part1.rar
    http://www.filecondo.com/dl.php?f=9399701OCN1f
    House.of.the.Dragon.S01E06.The.Princess.and.the.Qu een.1080p.part2.rar
    http://www.filecondo.com/dl.php?f=t5e1091OCMZo
    House.of.the.Dragon.S01E06.The.Princess.and.the.Qu een.1080p.part3.rar
    http://www.filecondo.com/dl.php?f=4ddc531OCMXb


    Download:cornfile
    1 https://www.cornfile.com/9ngl3t1ec02u
    2 https://www.cornfile.com/rqm26vrzl714
    2 https://www.cornfile.com/4u7avode0h0b
    3 https://www.cornfile.com/f51agtraqkwv
    4 https://www.cornfile.com/hng0bde10ttu
    5 https://www.cornfile.com/187ygobiwzkr
    6 https://www.cornfile.com/81oe8ih8nh2a

  2. The Following 9 Users Say Thank You to Duckload.us For This Useful Post:

    dulobobo (08-25-2022), jackjangri (08-29-2022), kappa (09-16-2022), lonin (09-15-2022), noi54 (08-22-2022), ohmsuradech (09-12-2022), sawara (08-22-2022), SiRII (08-22-2022), Wesker_TOT (08-23-2022)

  3. #2
    Senior Member
    สมัครเมื่อ
    Dec 2013
    โพสต์
    679
    Thanks
    630
    Thanked 0 Times in 0 Posts
    ขอบคุณครับบ

  4. #3
    Senior Member
    สมัครเมื่อ
    Dec 2013
    โพสต์
    3,975
    Thanks
    5,877
    Thanked 0 Times in 0 Posts
    ขอบคุณครับ...

  5. #4
    Senior Member รูปส่วนตัว Abuzayas47
    สมัครเมื่อ
    Apr 2020
    โพสต์
    182
    Thanks
    0
    Thanked 0 Times in 0 Posts
    ขอบคุณครับ

  6. #5
    I'm donate !
    สมัครเมื่อ
    Jun 2011
    โพสต์
    508
    Thanks
    660
    Thanked 40 Times in 29 Posts
    ขอบคุณครับ

  7. #6
    Senior Member
    สมัครเมื่อ
    May 2014
    โพสต์
    455
    Thanks
    0
    Thanked 0 Times in 0 Posts
    มีแบบSoundtrack ไหมครับท่าน

  8. #7
    Junior Member
    สมัครเมื่อ
    Nov 2016
    โพสต์
    3
    Thanks
    0
    Thanked 0 Times in 0 Posts
    มีเเบบ 4k ไหมครับ

  9. #8
    Senior Member
    สมัครเมื่อ
    May 2014
    โพสต์
    455
    Thanks
    0
    Thanked 0 Times in 0 Posts
    ท่านครับ ไฟล์ที่ 2 ที่มี 2 ไฟล์นั้น เป็นเสียงไทยเหมือนกันทั้งคู่เลยครับ (Filecondo) หากมีSoundtrac รบกวนลงให้หน่อยนะครับ ขอบพระคุณล่วงหน้าครับ

  10. #9
    Junior Member
    สมัครเมื่อ
    Sep 2022
    โพสต์
    3
    Thanks
    0
    Thanked 0 Times in 0 Posts
    ไฟล์ที่ 3 ยังเป็น ep2 อยู่น่าจะผิดไฟล์ ไม่ใช่ ep3 ครับ

  11. #10
    Administrators รูปส่วนตัว Duckload.us
    สมัครเมื่อ
    Dec 2010
    โพสต์
    138,184
    Thanks
    7
    Thanked 144,397 Times in 62,757 Posts
    Season 1 Ep.1-4

+ ตอบกลับกระทู้
หน้า 1 จากทั้งหมด 2 หน้า 1 2 หน้าสุดท้ายหน้าสุดท้าย

ข้อมูลกระทู้

Users Browsing this Thread

ในขณะนี้มี 19 ท่านดูกระทู้อยู่. (0 สมาชิกและ 19 ผู้เยี่ยมชม)

     

กฎการโพสต์ข้อความ

  • ท่าน ไม่สามารถ ตั้งกระทู้ใหม่ได้
  • ท่าน ไม่สามารถ ตอบกระทู้ได้
  • ท่าน ไม่สามารถ แนบไฟล์ได้
  • ท่าน ไม่สามารถ แก้ไขข้อความโพสต์ได้
  • BB code สถานะ เปิด
  • Smilies สถานะ เปิด
  • [IMG] สถานะ เปิด
  • HTML สถานะ ปิด