+ ตอบกลับกระทู้
สรุปผลการค้นหา 1 ถึง 10 จากทั้งหมด 10
  1. #1
    Administrators รูปส่วนตัว Duckload.us
    สมัครเมื่อ
    Dec 2010
    โพสต์
    139,879
    Thanks
    7
    Thanked 146,393 Times in 63,688 Posts

    Lightbulb [ฝรั่ง]-[AMZN] The Lord of the Rings The Rings of Power (2022) เดอะลอร์ดออฟเดอะริงส์ แหวนแห่งอำนาจ Season 1 Complete [เสียง:อังกฤษ-ไทย AC-3 5.1][บรรยาย: ไทย PGS และ ไทย/อังกฤษ SRT]-WEB-DL.H.264.1080p. [From HD-TV]-[พากย์ไทย บรรยายไทย]







    เรื่องย่อของซีรีส์ The Lord of the Rings: The Rings of Power
    ตำนานแห่งยุคสมัยที่ 2 ของดินแดนมัชฌิมโลกที่ยังไม่เคยถูกเล่าถึง เกิดขึ้นนับย้อนไปหลายพันปีก่อนเหตุการณ์ใน ‘The Hobbit’ และ ‘The Lord of the Rings’ เป็นห้วงเวลาที่จอมมารพ่ายแพ้และหายสาปสูญ เหล่าเอลฟ์ มนุษย์และเผ่าพันธุ์อื่นต่างมองไปข้างหน้าเพื่อสร้าง ยุคที่รุ่งเรืองอีกครั้ง ทว่าความชั่วทั้งเก่าก่อนและเกิดใหม่ยังเร้นกายรอการ หวนคืน นี่คือช่วงเวลาสำคัญในการก่อกำเนิดแหวนครองภิภพที่เร าคุ้นเคย


    Video
    ID : 1
    Format : AVC
    Format/Info : Advanced Video Codec
    Format profile : [email protected]
    Format settings, CABAC : Yes
    Format settings, RefFrames : 4 frames
    Codec ID : V_MPEG4/ISO/AVC
    Duration : 1 h 5 min
    Bit rate mode : Constant
    Bit rate : 7 304 kb/s
    Nominal bit rate : 10 000 kb/s
    Width : 1 920 pixels
    Height : 800 pixels
    Display aspect ratio : 2.40:1
    Frame rate mode : Constant
    Frame rate : 24.000 FPS
    Color space : YUV
    Chroma subsampling : 4:2:0
    Bit depth : 8 bits
    Scan type : Progressive
    Bits/(Pixel*Frame) : 0.198
    Stream size : 3.36 GiB (85%)
    Default : Yes
    Forced : No
    Color range : Limited
    Color primaries : BT.709
    Transfer characteristics : BT.709
    Matrix coefficients : BT.709

    Audio #1
    ID : 2
    Format : E-AC-3
    Format/Info : Enhanced Audio Coding 3
    Format settings, Endianness : Big
    Codec ID : A_EAC3
    Duration : 1 h 5 min
    Bit rate mode : Constant
    Bit rate : 640 kb/s
    Channel(s) : 6 channels
    Channel positions : Front: L C R, Side: L R, LFE
    Sampling rate : 48.0 kHz
    Frame rate : 187.500 FPS (256 SPF)
    Compression mode : Lossy
    Stream size : 301 MiB (7%)
    Title : [Thai-AC-3]
    Language : Thai
    Service kind : Complete Main
    Default : Yes
    Forced : No

    Audio #2
    ID : 3
    Format : E-AC-3
    Format/Info : Enhanced Audio Coding 3
    Format settings, Endianness : Big
    Codec ID : A_EAC3
    Duration : 1 h 5 min
    Bit rate mode : Constant
    Bit rate : 640 kb/s
    Channel(s) : 6 channels
    Channel positions : Front: L C R, Side: L R, LFE
    Sampling rate : 48.0 kHz
    Frame rate : 187.500 FPS (256 SPF)
    Compression mode : Lossy
    Stream size : 301 MiB (7%)
    Title : [English-AC-3]
    Language : English
    Service kind : Complete Main
    Default : No
    Forced : No

    Text #1
    ID : 4
    Format : PGS
    Muxing mode : zlib
    Codec ID : S_HDMV/PGS
    Codec ID/Info : Picture based subtitle format used on BDs/HD-DVDs
    Duration : 48 min 56 s
    Bit rate : 780 b/s
    Count of elements : 22
    Stream size : 280 KiB (0%)
    Title : [Thai AMZN Forced PGS]
    Language : Thai
    Default : Yes
    Forced : No

    Text #2
    ID : 5
    Format : PGS
    Muxing mode : zlib
    Codec ID : S_HDMV/PGS
    Codec ID/Info : Picture based subtitle format used on BDs/HD-DVDs
    Duration : 1 h 2 min
    Bit rate : 42.6 kb/s
    Count of elements : 1264
    Stream size : 19.0 MiB (0%)
    Title : [Thai AMZN PGS]
    Language : Thai
    Default : No
    Forced : No

    Text #3
    ID : 6
    Format : UTF-8
    Codec ID : S_TEXT/UTF8
    Codec ID/Info : UTF-8 Plain Text
    Duration : 48 min 56 s
    Bit rate : 1 b/s
    Count of elements : 11
    Stream size : 665 Bytes (0%)
    Title : Thai Forced
    Language : Thai
    Default : No
    Forced : No

    Text #4
    ID : 7
    Format : UTF-8
    Codec ID : S_TEXT/UTF8
    Codec ID/Info : UTF-8 Plain Text
    Duration : 1 h 2 min
    Bit rate : 105 b/s
    Count of elements : 632
    Stream size : 48.2 KiB (0%)
    Title : Thai
    Language : Thai
    Default : No
    Forced : No

    Text #5
    ID : 8
    Format : UTF-8
    Codec ID : S_TEXT/UTF8
    Codec ID/Info : UTF-8 Plain Text
    Duration : 9 min 13 s
    Bit rate : 0 b/s
    Count of elements : 3
    Stream size : 68.0 Bytes (0%)
    Title : English Forced
    Language : English
    Default : No
    Forced : No

    Text #6
    ID : 9
    Format : UTF-8
    Codec ID : S_TEXT/UTF8
    Codec ID/Info : UTF-8 Plain Text
    Duration : 59 min 7 s
    Bit rate : 52 b/s
    Count of elements : 761
    Stream size : 22.9 KiB (0%)
    Title : English
    Language : English
    Default : No
    Forced : No








    Download:filecondo
    1 http://www.filecondo.com/dl.php?f=v4ffe51Ou28E
    2 http://www.filecondo.com/dl.php?f=2091e71Ou2cl
    3 http://www.filecondo.com/dl.php?f=w728b21OwHE1
    3 http://www.filecondo.com/dl.php?f=1da1d31OwXZG
    4 http://www.filecondo.com/dl.php?f=B914f51Ozuni
    5 http://www.filecondo.com/dl.php?f=Mf69961OC0VQ
    6 http://www.filecondo.com/dl.php?f=H0d8911OEwHz
    7 [บรรยายไทย] http://www.filecondo.com/dl.php?f=3cd6781OGJIX
    7 [พากย์ไทย] http://www.filecondo.com/dl.php?f=xcae131OGNgj
    8 http://www.filecondo.com/dl.php?f=pa3d121OJBrF

    *********************************

    Download:cornfile
    The Lord of the Rings The Rings of Power (2022) แหวนแห่งอำนาจ S01E01 เงาแห่งอดีต 1080p.mkv - 4.0 GB
    The Lord of the Rings The Rings of Power (2022) แหวนแห่งอำนาจ S01E02 ลอยล่อง 1080p.mkv - 4.2 GB
    The.Lord.of.the.Rings.The.Rings.of.Power.S01E03.Ad ar.1080p.AMZN.WEB-DL.DDP5.1.H.264.th.mkv - 4.7 GB
    The Lord of the Rings The Rings of Power (2022) แหวนแห่งอำนาจ S01E03 อะดาร์ 1080p.mkv - 4.7 GB
    The Lord of the Rings The Rings of Power (2022) แหวนแห่งอำนาจ S01E04 คลื่นลูกยักษ์ 1080p.mkv - 4.3 GB
    The Lord of the Rings The Rings of Power (2022) แหวนแห่งอำนาจ S01E05 การจากลา 1080p.Modified By mxn.mkv - 4.0 GB
    Download:cornfile
    ทีมงาน Duckload ขอระงับการอัพไฟล์ใหม่ๆ ขึ้น cornfile ทั้งหมด Click!!

  2. The Following 6 Users Say Thank You to Duckload.us For This Useful Post:

    agg001 (09-07-2022), dulobobo (09-09-2022), jackjangri (09-02-2022), kappa (09-17-2022), SiRII (09-02-2022), Wesker_TOT (09-03-2022)

  3. #2
    I'm donate !
    สมัครเมื่อ
    Jun 2011
    โพสต์
    568
    Thanks
    717
    Thanked 40 Times in 29 Posts
    thankyou...

  4. #3
    Member
    สมัครเมื่อ
    Feb 2017
    โพสต์
    75
    Thanks
    0
    Thanked 0 Times in 0 Posts
    ขอบคุณมากครับ

  5. #4
    Senior Member
    สมัครเมื่อ
    May 2014
    โพสต์
    455
    Thanks
    0
    Thanked 0 Times in 0 Posts
    กราบงามๆ ไวมากๆครับ

  6. #5
    Senior Member
    สมัครเมื่อ
    Dec 2013
    โพสต์
    4,172
    Thanks
    6,072
    Thanked 0 Times in 0 Posts
    ขอบคุณครับ...

  7. #6
    Senior Member รูปส่วนตัว Abuzayas47
    สมัครเมื่อ
    Apr 2020
    โพสต์
    185
    Thanks
    0
    Thanked 0 Times in 0 Posts
    ขอบคุณครับ

  8. #7
    Senior Member
    สมัครเมื่อ
    Jan 2011
    โพสต์
    827
    Thanks
    1,129
    Thanked 0 Times in 0 Posts
    ขอบคุณครับ

  9. #8
    Administrators รูปส่วนตัว Duckload.us
    สมัครเมื่อ
    Dec 2010
    โพสต์
    139,879
    Thanks
    7
    Thanked 146,393 Times in 63,688 Posts
    The Lord of the Rings The Rings of Power (2022) แหวนแห่งอำนาจ Season 1 EP.1-3

  10. #9
    Senior Member
    สมัครเมื่อ
    Dec 2018
    โพสต์
    110
    Thanks
    6
    Thanked 1 Time in 1 Post
    filecondo 6 โหลดไม่ได้

  11. #10
    Junior Member
    สมัครเมื่อ
    Aug 2015
    โพสต์
    15
    Thanks
    0
    Thanked 0 Times in 0 Posts
    6 เสียครับ

+ ตอบกลับกระทู้

ข้อมูลกระทู้

Users Browsing this Thread

ในขณะนี้มี 1 ท่านดูกระทู้อยู่. (0 สมาชิกและ 1 ผู้เยี่ยมชม)

     

กฎการโพสต์ข้อความ

  • ท่าน ไม่สามารถ ตั้งกระทู้ใหม่ได้
  • ท่าน ไม่สามารถ ตอบกระทู้ได้
  • ท่าน ไม่สามารถ แนบไฟล์ได้
  • ท่าน ไม่สามารถ แก้ไขข้อความโพสต์ได้
  • BB code สถานะ เปิด
  • Smilies สถานะ เปิด
  • [IMG] สถานะ เปิด
  • HTML สถานะ ปิด