+ ตอบกลับกระทู้
สรุปผลการค้นหา 1 ถึง 2 จากทั้งหมด 2
  1. #1
    Administrators รูปส่วนตัว Duckload.us
    สมัครเมื่อ
    Dec 2010
    โพสต์
    138,184
    Thanks
    7
    Thanked 144,399 Times in 62,758 Posts

    Thumbs up [ฝรั่ง]-[AMAZON] Virus-32 (2022) -WEB-DL.EAC-3.1080p. [Modified]-[พากย์สเปน 5.1 บรรยายไทย (แปล petty)-อังกฤษ(ฝัง)]




    A virus breaks out, resulting in a chilling massacre through the streets of Montevideo. The infected become hunters and only calm their fever by unscrupulously killing all those who have not caught the virus yet. Unaware of this, Iris and her daughter spend the day at the sports club where Iris works as a security guard. When night comes, she is to start a merciless fight. Her only hope of salvation comes when they discover that after each attack the infected seem to fall into a 32-second trance of calmness and stillness before charging again.

    Format : Matroska
    Format version : Version 4
    File size : 4.32 GiB
    Duration : 1 h 30 min
    Overall bit rate : 6 872 kb/s
    Encoded date : UTC 2022-09-04 17:03:55
    Writing application : mkvmerge v55.0.0 ('Waiting For Space') 64-bit
    Writing library : libebml v1.4.2 + libmatroska v1.6.4

    Video
    ID : 1
    Format : AVC
    Format/Info : Advanced Video Codec
    Format profile : [email protected]
    Format settings : CABAC / 3 Ref Frames
    Format settings, CABAC : Yes
    Format settings, Reference : 3 frames
    Codec ID : V_MPEG4/ISO/AVC
    Duration : 1 h 30 min
    Bit rate : 6 640 kb/s
    Width : 1 920 pixels
    Height : 800 pixels
    Display aspect ratio : 2.40:1
    Frame rate mode : Constant
    Frame rate : 24.000 FPS
    Color space : YUV
    Chroma subsampling : 4:2:0
    Bit depth : 8 bits
    Scan type : Progressive
    Bits/(Pixel*Frame) : 0.180
    Stream size : 4.18 GiB (97%)
    Language : Spanish
    Default : Yes
    Forced : No
    Color range : Limited
    Color primaries : BT.709
    Transfer characteristics : BT.709
    Matrix coefficients : BT.709

    Audio
    ID : 2
    Format : E-AC-3
    Format/Info : Enhanced AC-3
    Commercial name : Dolby Digital Plus
    Codec ID : A_EAC3
    Duration : 1 h 30 min
    Bit rate mode : Constant
    Bit rate : 224 kb/s
    Channel(s) : 2 channels
    Channel layout : L R
    Sampling rate : 48.0 kHz
    Frame rate : 31.250 FPS (1536 SPF)
    Compression mode : Lossy
    Stream size : 144 MiB (3%)
    Title : E-AC3 Spanish
    Language : Spanish
    Service kind : Complete Main
    Default : Yes
    Forced : No

    Text #1
    ID : 3
    Format : VobSub
    Muxing mode : zlib
    Codec ID : S_VOBSUB
    Codec ID/Info : Picture based subtitle format used on DVDs
    Duration : 1 h 24 min
    Bit rate : 4 363 b/s
    Frame rate : 0.138 FPS
    Count of elements : 702
    Stream size : 2.65 MiB (0%)
    Title : Sub Thai 1080p
    Language : Thai
    Default : No
    Forced : No

    Text #2
    ID : 4
    Format : UTF-8
    Codec ID : S_TEXT/UTF8
    Codec ID/Info : UTF-8 Plain Text
    Duration : 1 h 24 min
    Bit rate : 60 b/s
    Frame rate : 0.138 FPS
    Count of elements : 702
    Stream size : 37.4 KiB (0%)
    Title : Sub Thai SRT
    Language : Thai
    Default : No
    Forced : No

    Text #3
    ID : 5
    Format : PGS
    Muxing mode : zlib
    Codec ID : S_HDMV/PGS
    Codec ID/Info : Picture based subtitle format used on BDs/HD-DVDs
    Duration : 1 h 24 min
    Bit rate : 10.1 kb/s
    Frame rate : 0.275 FPS
    Count of elements : 1404
    Stream size : 6.13 MiB (0%)
    Title : Sub Thai PGS
    Language : Thai
    Default : Yes
    Forced : No






    บรรยายไทยโดย petty

    Download:filecondo
    http://www.filecondo.com/dl.php?f=c8589f1Ow9gk
    Download:cornfile
    https://www.cornfile.com/32ggxvz2bgus

  2. The Following User Says Thank You to Duckload.us For This Useful Post:

    Wesker_TOT (09-09-2022)

  3. #2
    Senior Member
    สมัครเมื่อ
    Dec 2013
    โพสต์
    3,976
    Thanks
    5,878
    Thanked 0 Times in 0 Posts
    ขอบคุณครับ...

+ ตอบกลับกระทู้

ข้อมูลกระทู้

Users Browsing this Thread

ในขณะนี้มี 1 ท่านดูกระทู้อยู่. (0 สมาชิกและ 1 ผู้เยี่ยมชม)

     

กฎการโพสต์ข้อความ

  • ท่าน ไม่สามารถ ตั้งกระทู้ใหม่ได้
  • ท่าน ไม่สามารถ ตอบกระทู้ได้
  • ท่าน ไม่สามารถ แนบไฟล์ได้
  • ท่าน ไม่สามารถ แก้ไขข้อความโพสต์ได้
  • BB code สถานะ เปิด
  • Smilies สถานะ เปิด
  • [IMG] สถานะ เปิด
  • HTML สถานะ ปิด