+ ตอบกลับกระทู้
สรุปผลการค้นหา 1 ถึง 3 จากทั้งหมด 3
  1. #1
    Administrators รูปส่วนตัว Duckload.us
    สมัครเมื่อ
    Dec 2010
    โพสต์
    138,184
    Thanks
    7
    Thanked 144,399 Times in 62,758 Posts

    Thumbs up [เกาหลี] EMERGENCY DECLARATION (2022) ไฟลต์คลั่ง ฝ่านรกชีวะ [พากย์:Korean/Thai Rong][SUB:อังกฤษ][1080ip]



    เหตุการณ์สุดระทึกบนเที่ยวบิน KI 501 ซึ่งจะเดินทางจากกรุงโซลสู่ฮาวาย หลังจากที่เครื่องบินขึ้นสูงเหนือระดับน้ำทะเลกว่าสอ งหมื่นฟุต กลับมีผู้โดยสารเสียชีวิตปริศนา ท่ามกลางความวุ่นวายและโกลาหล กัปตันจึงขอลงจอดฉุกเฉิน แต่ทว่าภาคพื้นดินได้มีคำสั่งแจ้งกลับมาว่า เที่ยงบินลำนี้ไม่อนุญาตให้ลงจอดที่ไหนบนโลกใบนี้ อะไรคือคำตอบของเหตุการณ์นี้ บนเครื่องบินลำนี้เกิดเหตุการณ์ “บางอย่าง” ขึ้น และ “บางอย่าง” ที่ว่า มันคืออะไรกันแน่?

    Format : Matroska
    Format version : Version 4
    File size : 3.93 GiB
    Duration : 2 h 20 min
    Overall bit rate : 3 996 kb/s
    Movie name : Emergency.Declaration.2022.KOREAN.1080p.WEBRip.x26 4_©GOLD CUP™_WWW.TT-TORRENT.COM

    Video
    ID : 1
    Format : AVC
    Format/Info : Advanced Video Codec
    Format profile : [email protected]
    Format settings : CABAC / 4 Ref Frames
    Format settings, CABAC : Yes
    Format settings, Reference : 4 frames
    Codec ID : V_MPEG4/ISO/AVC
    Duration : 2 h 20 min
    Bit rate : 2 500 kb/s
    Width : 1 920 pixels
    Height : 804 pixels
    Display aspect ratio : 2.40:1
    Frame rate mode : Constant
    Frame rate : 23.976 (23976/1000) FPS
    Color space : YUV
    Chroma subsampling : 4:2:0
    Bit depth : 8 bits
    Scan type : Progressive
    Bits/(Pixel*Frame) : 0.068
    Stream size : 2.46 GiB (63%)
    Title : Emergency.Declaration.2022.KOREAN.1080p.WEBRip.x26 4_©GOLD CUP™
    Writing library : x264 core 152 r2851M ba24899
    Language : Korean
    Default : Yes
    Forced : No

    Audio #1
    ID : 2
    Format : AAC LC
    Format/Info : Advanced Audio Codec Low Complexity
    Codec ID : A_AAC-2
    Duration : 2 h 20 min
    Bit rate : 224 kb/s
    Channel(s) : 2 channels
    Channel layout : L R
    Sampling rate : 48.0 kHz
    Frame rate : 46.875 FPS (1024 SPF)
    Compression mode : Lossy
    Delay relative to video : -43 ms
    Stream size : 225 MiB (6%)
    Title : Kor.AAC.2.0_192 kbs
    Language : Korean
    Default : Yes
    Forced : No

    Audio #2
    ID : 3
    Format : AC-3
    Format/Info : Audio Coding 3
    Commercial name : Dolby Digital
    Codec ID : A_AC3
    Duration : 2 h 20 min
    Bit rate mode : Constant
    Bit rate : 192 kb/s
    Channel(s) : 2 channels
    Channel layout : L R
    Sampling rate : 48.0 kHz
    Frame rate : 31.250 FPS (1536 SPF)
    Compression mode : Lossy
    Delay relative to video : -43 ms
    Stream size : 193 MiB (5%)
    Title : Thr.2.0.AC3.192k
    Language : Thai
    Service kind : Complete Main
    Default : Yes
    Forced : No

    Audio #3
    ID : 4
    Format : DTS
    Format/Info : Digital Theater Systems
    Codec ID : A_DTS
    Duration : 2 h 20 min
    Bit rate mode : Constant
    Bit rate : 1 059 kb/s
    Channel(s) : 2 channels
    Channel layout : L R
    Sampling rate : 32.0 kHz
    Frame rate : 31.250 FPS (1024 SPF)
    Bit depth : 16 bits
    Compression mode : Lossy
    Delay relative to video : -43 ms
    Stream size : 1.04 GiB (27%)
    Title : Kor.DTS.2.0_Sample Rate 32000
    Language : Korean
    Default : Yes
    Forced : No

    Text
    ID : 5
    Format : PGS
    Muxing mode : zlib
    Codec ID : S_HDMV/PGS
    Codec ID/Info : Picture based subtitle format used on BDs/HD-DVDs
    Duration : 2 h 14 min
    Bit rate : 33.4 kb/s
    Frame rate : 0.394 FPS
    Count of elements : 3186
    Stream size : 32.3 MiB (1%)
    Title : EN.110.3.83.Yellow
    Language : English
    Default : No
    Forced : No





    Download:filecondo
    http://www.filecondo.com/dl.php?f=v158841OwCeN
    Download:cornfile
    https://www.cornfile.com/jasbobl3aelm

  2. The Following 3 Users Say Thank You to Duckload.us For This Useful Post:

    masaomi (09-10-2022), noi54 (09-11-2022), Wesker_TOT (09-10-2022)

  3. #2
    Senior Member
    สมัครเมื่อ
    Jul 2012
    โพสต์
    8,059
    Thanks
    0
    Thanked 0 Times in 0 Posts
    ขอบคุณมากจ้า

  4. #3
    Senior Member
    สมัครเมื่อ
    Dec 2013
    โพสต์
    3,976
    Thanks
    5,878
    Thanked 0 Times in 0 Posts
    ขอบคุณครับ...

+ ตอบกลับกระทู้

ข้อมูลกระทู้

Users Browsing this Thread

ในขณะนี้มี 1 ท่านดูกระทู้อยู่. (0 สมาชิกและ 1 ผู้เยี่ยมชม)

     

กฎการโพสต์ข้อความ

  • ท่าน ไม่สามารถ ตั้งกระทู้ใหม่ได้
  • ท่าน ไม่สามารถ ตอบกระทู้ได้
  • ท่าน ไม่สามารถ แนบไฟล์ได้
  • ท่าน ไม่สามารถ แก้ไขข้อความโพสต์ได้
  • BB code สถานะ เปิด
  • Smilies สถานะ เปิด
  • [IMG] สถานะ เปิด
  • HTML สถานะ ปิด