หลังจากปีนยอดเขาบรอดพีคมาแล้ว มาเชีย เบอร์เบก้าก็ได้รู้ว่าเขายังไปไม่ถึงจุดหมายที่แท้จร ิง จึงตัดสินใจสะสางภารกิจที่ค้างคาใจ หลังจากผ่านไป 25 ปี

Format : Matroska
Format version : Version 4
File size : 4.20 GiB
Duration : 1 h 42 min
Overall bit rate : 5 893 kb/s
Encoded date : UTC 2022-09-14 11:50:41
Writing application : mkvmerge v55.0.0 ('Waiting For Space') 64-bit
Writing library : libebml v1.4.2 + libmatroska v1.6.4

Video
ID : 1
Format : AVC
Format/Info : Advanced Video Codec
Format profile : [email protected]
Format settings : CABAC / 3 Ref Frames
Format settings, CABAC : Yes
Format settings, Reference : 3 frames
Codec ID : V_MPEG4/ISO/AVC
Duration : 1 h 42 min
Bit rate : 4 450 kb/s
Width : 1 920 pixels
Height : 804 pixels
Display aspect ratio : 2.40:1
Frame rate mode : Constant
Frame rate : 24.000 FPS
Color space : YUV
Chroma subsampling : 4:2:0
Bit depth : 8 bits
Scan type : Progressive
Bits/(Pixel*Frame) : 0.120
Stream size : 3.17 GiB (76%)
Language : Polish
Default : Yes
Forced : No

Audio #1
ID : 2
Format : E-AC-3 JOC
Format/Info : Enhanced AC-3 with Joint Object Coding
Commercial name : Dolby Digital Plus with Dolby Atmos
Codec ID : A_EAC3
Duration : 1 h 42 min
Bit rate mode : Constant
Bit rate : 768 kb/s
Channel(s) : 6 channels
Channel layout : L R C LFE Ls Rs
Sampling rate : 48.0 kHz
Frame rate : 31.250 FPS (1536 SPF)
Compression mode : Lossy
Stream size : 561 MiB (13%)
Title : E-AC3 Atmos Polish
Language : Polish
Service kind : Complete Main
Default : Yes
Forced : No
Complexity index : 16
Number of dynamic objects : 15
Bed channel count : 1 channel
Bed channel configuration : LFE

Audio #2
ID : 3
Format : E-AC-3
Format/Info : Enhanced AC-3
Commercial name : Dolby Digital Plus
Codec ID : A_EAC3
Duration : 1 h 42 min
Bit rate mode : Constant
Bit rate : 640 kb/s
Channel(s) : 6 channels
Channel layout : L R C LFE Ls Rs
Sampling rate : 48.0 kHz
Frame rate : 31.250 FPS (1536 SPF)
Compression mode : Lossy
Stream size : 468 MiB (11%)
Title : E-AC3 English
Language : English
Service kind : Complete Main
Default : No
Forced : No

Text #1
ID : 4
Format : VobSub
Muxing mode : zlib
Codec ID : S_VOBSUB
Codec ID/Info : Picture based subtitle format used on DVDs
Duration : 1 h 40 min
Bit rate : 6 153 b/s
Frame rate : 0.094 FPS
Count of elements : 571
Stream size : 4.44 MiB (0%)
Title : Sub Thai 1080p
Language : Thai
Default : No
Forced : No

Text #2
ID : 5
Format : UTF-8
Codec ID : S_TEXT/UTF8
Codec ID/Info : UTF-8 Plain Text
Duration : 1 h 40 min
Bit rate : 65 b/s
Frame rate : 0.094 FPS
Count of elements : 571
Stream size : 48.4 KiB (0%)
Title : Sub Thai SRT
Language : Thai
Default : No
Forced : No

Text #3
ID : 6
Format : PGS
Muxing mode : zlib
Codec ID : S_HDMV/PGS
Codec ID/Info : Picture based subtitle format used on BDs/HD-DVDs
Duration : 1 h 40 min
Bit rate : 18.8 kb/s
Frame rate : 0.188 FPS
Count of elements : 1142
Stream size : 13.5 MiB (0%)
Title : Sub Thai PGS
Language : Thai
Default : No
Forced : No

Text #4
ID : 7
Format : PGS
Muxing mode : zlib
Codec ID : S_HDMV/PGS
Codec ID/Info : Picture based subtitle format used on BDs/HD-DVDs
Duration : 1 h 40 min
Bit rate : 30.9 kb/s
Frame rate : 0.188 FPS
Count of elements : 1142
Stream size : 22.3 MiB (1%)
Title : Sub Thai PGS NETFLIX
Language : Thai
Default : Yes
Forced : No

Text #5
ID : 8
Format : UTF-8
Codec ID : S_TEXT/UTF8
Codec ID/Info : UTF-8 Plain Text
Duration : 1 h 40 min
Bit rate : 26 b/s
Frame rate : 0.096 FPS
Count of elements : 579
Stream size : 19.9 KiB (0%)
Title : Sub English SRT
Language : English
Default : No
Forced : No






Download:filecondo
http://www.filecondo.com/dl.php?f=H70ffa1Oz8NG
Download:cornfile
https://www.cornfile.com/40j8y4o663qu