+ ตอบกลับกระทู้
สรุปผลการค้นหา 1 ถึง 1 จากทั้งหมด 1
  1. #1
    Administrators รูปส่วนตัว Duckload.us
    สมัครเมื่อ
    Dec 2010
    โพสต์
    138,184
    Thanks
    7
    Thanked 144,399 Times in 62,758 Posts

    Thumbs up [ฝรั่ง]-[AMAZON] Emily the Criminal (2022) -WEB-DL.EAC-3.1080p. [Modified]-[พากย์อังกฤษ 5.1 บรรยายไทย (แปล อนันต์ โพธิสูง)-อังกฤษ]



    เอมิลี่ (ออเบรย์ พลาซ่า) ติดหนี้นักศึกษาและถูกห้ามออกจากตลาดงานเนื่องจากประ วัติอาชญากรรมเล็กน้อย หมดหวังกับรายได้ เธอจึงแสดงท่าทางตลกขบขันเป็น “นักช้อปจอมปลอม” ซื้อสินค้าด้วยบัตรเครดิตที่ถูกขโมยมาจากคนหน้าตาดี และพ่อค้าคนกลางที่มีเสน่ห์ชื่อ Youcef (ธีโอ รอสซี) เมื่อต้องเผชิญกับการสัมภาษณ์งานที่ไม่จบไม่สิ้น ในไม่ช้า Emily ก็พบว่าตัวเองถูกล่อลวงด้วยเงินสดที่รวดเร็วและความต ื่นเต้นที่ผิดกฎหมายของระบบทุนนิยมตลาดมืดและสนใจ Youcef ที่ปรึกษาของเธอมากขึ้น วางแผนเพื่อนำธุรกิจของพวกเขาไปสู่อีกระดับในลอสแองเ จลิส

    Format : Matroska
    Format version : Version 4
    File size : 4.26 GiB
    Duration : 1 h 36 min
    Overall bit rate : 6 294 kb/s
    Encoded date : UTC 2022-09-15 13:13:00
    Writing application : mkvmerge v55.0.0 ('Waiting For Space') 64-bit
    Writing library : libebml v1.4.2 + libmatroska v1.6.4

    Video
    ID : 1
    Format : AVC
    Format/Info : Advanced Video Codec
    Format profile : [email protected]
    Format settings : CABAC / 3 Ref Frames
    Format settings, CABAC : Yes
    Format settings, Reference : 3 frames
    Codec ID : V_MPEG4/ISO/AVC
    Duration : 1 h 36 min
    Bit rate : 5 633 kb/s
    Width : 1 920 pixels
    Height : 800 pixels
    Display aspect ratio : 2.40:1
    Frame rate mode : Constant
    Frame rate : 23.976 (24000/1001) FPS
    Color space : YUV
    Chroma subsampling : 4:2:0
    Bit depth : 8 bits
    Scan type : Progressive
    Bits/(Pixel*Frame) : 0.153
    Stream size : 3.81 GiB (89%)
    Language : English
    Default : Yes
    Forced : No
    Color range : Limited
    Color primaries : BT.709
    Transfer characteristics : BT.709
    Matrix coefficients : BT.709

    Audio
    ID : 2
    Format : E-AC-3
    Format/Info : Enhanced AC-3
    Commercial name : Dolby Digital Plus
    Codec ID : A_EAC3
    Duration : 1 h 36 min
    Bit rate mode : Constant
    Bit rate : 640 kb/s
    Channel(s) : 6 channels
    Channel layout : L R C LFE Ls Rs
    Sampling rate : 48.0 kHz
    Frame rate : 31.250 FPS (1536 SPF)
    Compression mode : Lossy
    Stream size : 443 MiB (10%)
    Title : E-AC3 English
    Language : English
    Service kind : Complete Main
    Default : Yes
    Forced : No

    Text #1
    ID : 3
    Format : VobSub
    Muxing mode : zlib
    Codec ID : S_VOBSUB
    Codec ID/Info : Picture based subtitle format used on DVDs
    Duration : 1 h 30 min
    Bit rate : 9 869 b/s
    Frame rate : 0.213 FPS
    Count of elements : 1158
    Stream size : 6.39 MiB (0%)
    Title : Sub Thai 1080p
    Language : Thai
    Default : No
    Forced : No

    Text #2
    ID : 4
    Format : UTF-8
    Codec ID : S_TEXT/UTF8
    Codec ID/Info : UTF-8 Plain Text
    Duration : 1 h 30 min
    Bit rate : 100 b/s
    Frame rate : 0.213 FPS
    Count of elements : 1158
    Stream size : 66.9 KiB (0%)
    Title : Sub Thai SRT
    Language : Thai
    Default : No
    Forced : No

    Text #3
    ID : 5
    Format : PGS
    Muxing mode : zlib
    Codec ID : S_HDMV/PGS
    Codec ID/Info : Picture based subtitle format used on BDs/HD-DVDs
    Duration : 1 h 30 min
    Bit rate : 31.1 kb/s
    Frame rate : 0.426 FPS
    Count of elements : 2316
    Stream size : 20.2 MiB (0%)
    Title : Sub Thai PGS
    Language : Thai
    Default : Yes
    Forced : No

    Text #4
    ID : 6
    Format : UTF-8
    Codec ID : S_TEXT/UTF8
    Codec ID/Info : UTF-8 Plain Text
    Duration : 1 h 27 min
    Bit rate : 46 b/s
    Frame rate : 0.223 FPS
    Count of elements : 1173
    Stream size : 30.0 KiB (0%)
    Title : Sub English SRT
    Language : English
    Default : No
    Forced : No






    Download:filecondo
    http://www.filecondo.com/dl.php?f=ifd9951Oz8XM
    Download:cornfile
    https://www.cornfile.com/q0pj79in5btg

  2. The Following User Says Thank You to Duckload.us For This Useful Post:

    mettset (09-21-2022)

+ ตอบกลับกระทู้

ข้อมูลกระทู้

Users Browsing this Thread

ในขณะนี้มี 1 ท่านดูกระทู้อยู่. (0 สมาชิกและ 1 ผู้เยี่ยมชม)

     

กฎการโพสต์ข้อความ

  • ท่าน ไม่สามารถ ตั้งกระทู้ใหม่ได้
  • ท่าน ไม่สามารถ ตอบกระทู้ได้
  • ท่าน ไม่สามารถ แนบไฟล์ได้
  • ท่าน ไม่สามารถ แก้ไขข้อความโพสต์ได้
  • BB code สถานะ เปิด
  • Smilies สถานะ เปิด
  • [IMG] สถานะ เปิด
  • HTML สถานะ ปิด