ในหมู่บ้านบนภูเขาที่โดดเดี่ยวของมาซิโดเนียในศตวรรษ ที่ 19 เด็กสาวคนหนึ่งถูกลักพาตัวไปและกลายเป็นแม่มดโดยวิญญ าณโบราณ ด้วยความอยากรู้อยากเห็นเกี่ยวกับชีวิตของมนุษย์ แม่มดสาวจึงบังเอิญฆ่าชาวไร่ในหมู่บ้านใกล้เคียง จากนั้นจึงนำร่างของเหยื่อไปใช้ชีวิต ความอยากรู้อยากเห็นของเธอจุดประกาย เธอยังคงใช้พลังอันน่าสยดสยองนี้ต่อไปเพื่อทำความเข้ าใจความหมายของการเป็นมนุษย์

Format : Matroska
Format version : Version 4
File size : 4.28 GiB
Duration : 1 h 49 min
Overall bit rate : 5 599 kb/s
Encoded date : UTC 2022-09-18 07:56:02
Writing application : mkvmerge v55.0.0 ('Waiting For Space') 64-bit
Writing library : libebml v1.4.2 + libmatroska v1.6.4

Video
ID : 1
Format : AVC
Format/Info : Advanced Video Codec
Format profile : [email protected]
Format settings : CABAC / 3 Ref Frames
Format settings, CABAC : Yes
Format settings, Reference : 3 frames
Codec ID : V_MPEG4/ISO/AVC
Duration : 1 h 49 min
Bit rate : 4 949 kb/s
Width : 1 552 pixels
Height : 1 080 pixels
Display aspect ratio : 1.437
Frame rate mode : Constant
Frame rate : 23.976 (24000/1001) FPS
Color space : YUV
Chroma subsampling : 4:2:0
Bit depth : 8 bits
Scan type : Progressive
Bits/(Pixel*Frame) : 0.123
Stream size : 3.78 GiB (88%)
Language : Macedonian
Default : Yes
Forced : No
Color range : Limited
Color primaries : BT.709
Transfer characteristics : BT.709
Matrix coefficients : BT.709

Audio
ID : 2
Format : E-AC-3
Format/Info : Enhanced AC-3
Commercial name : Dolby Digital Plus
Codec ID : A_EAC3
Duration : 1 h 49 min
Bit rate mode : Constant
Bit rate : 640 kb/s
Channel(s) : 6 channels
Channel layout : L R C LFE Ls Rs
Sampling rate : 48.0 kHz
Frame rate : 31.250 FPS (1536 SPF)
Compression mode : Lossy
Stream size : 501 MiB (11%)
Title : E-AC3 Macedonian
Language : Macedonian
Service kind : Complete Main
Default : Yes
Forced : No

Text #1
ID : 3
Format : VobSub
Muxing mode : zlib
Codec ID : S_VOBSUB
Codec ID/Info : Picture based subtitle format used on DVDs
Duration : 1 h 47 min
Bit rate : 3 789 b/s
Frame rate : 0.072 FPS
Count of elements : 465
Stream size : 2.91 MiB (0%)
Title : Sub Thai 1080p
Language : Thai
Default : No
Forced : No

Text #2
ID : 4
Format : UTF-8
Codec ID : S_TEXT/UTF8
Codec ID/Info : UTF-8 Plain Text
Duration : 1 h 47 min
Bit rate : 41 b/s
Frame rate : 0.072 FPS
Count of elements : 465
Stream size : 32.8 KiB (0%)
Title : Sub Thai SRT
Language : Thai
Default : No
Forced : No

Text #3
ID : 5
Format : PGS
Muxing mode : zlib
Codec ID : S_HDMV/PGS
Codec ID/Info : Picture based subtitle format used on BDs/HD-DVDs
Duration : 1 h 47 min
Bit rate : 11.9 kb/s
Frame rate : 0.144 FPS
Count of elements : 930
Stream size : 9.11 MiB (0%)
Title : Sub Thai PGS
Language : Thai
Default : Yes
Forced : No

Text #4
ID : 6
Format : UTF-8
Codec ID : S_TEXT/UTF8
Codec ID/Info : UTF-8 Plain Text
Duration : 1 h 42 min
Bit rate : 14 b/s
Frame rate : 0.075 FPS
Count of elements : 464
Stream size : 11.1 KiB (0%)
Title : Sub English SRT
Language : English
Default : No
Forced : No







Download:filecondo
http://www.filecondo.com/dl.php?f=E68f141OAdzX
Download:cornfile
https://www.cornfile.com/g6pqnw6hz54w