+ ตอบกลับกระทู้
สรุปผลการค้นหา 1 ถึง 2 จากทั้งหมด 2
  1. #1
    Administrators รูปส่วนตัว Duckload.us
    สมัครเมื่อ
    Dec 2010
    โพสต์
    138,184
    Thanks
    7
    Thanked 144,397 Times in 62,757 Posts

    Thumbs up [ญี่ปุ่น]-Jujutsu Kaisen 0- The Movie (2022) มหาเวทย์ผนึกมาร ซีโร่ -Blu-ray.H.264.1080p. [rip from Master]-[Soundtrack บรรยายไทย]



    เรื่องย่อ
    หนัง Jujutsu Kaisen 0 หรือชื่อไทยว่า มหาเวทย์ผนึกมาร ซีโร่ เมื่อสมัยยังเป็นเพียงเด็กชายตัวน้อย “อคคทสึ ยูตะ” สูญเสียโอริโมโตะ ริกะซึ่งเป็นเพื่อนวัยเด็กของตัวเองไปต่อหน้าต่อตาจา กอุบัติเหตุทางรถยนต์ “สัญญานะ ว่าถ้าเป็นผู้ใหญ่เมื่อไรยูตะจะแต่งงานกับริกะ” ความทุกข์ทรมานจากการถูกริกะซึ่งกลายเป็นวิญญาณแค้นต ามหลอกหลอน ทำให้ยูตะคิดอยากตายเสียให้รู้แล้วรู้รอด ทว่าจู่ ๆ เขากลับถูกผู้ใช้คุณไสยสุดแกร่งโกะโจ ซาโตรุพาตัวมายังโรงเรียนไสยเวท การได้พบกับเซนอิง มาคิ, อินุมาคิ โทเงะ และแพนด้าซึ่งเป็นเพื่อนร่วมชั้นเรียนเดียวกันทำให้อ คคทสึตั้งปณิธานหนึ่งกับตัวเอง “ผมอยากได้ความมั่นใจ ว่าผมสมควรมีชีวิตอยู่ต่อ” ”ผมจะแก้คำสาปของริกะจังให้ได้ ที่โรงเรียนไสยเวทนี่แหละครับ” แต่แล้ว “เกะโท สุงุรุ” นักสาปแช่งจอมชั่วร้ายซึ่งถูกอัปเปหิออกจากโรงเรียนไ สยเวท เนื่องจากเคยก่อเหตุสังหารหมู่บุคคลทั่วไปอย่างโหดเห ี้ยมกลับมาปรากฏตัวต่อหน้าอคคทสึ “วันที่ 24 ธันวาคมที่กำลังจะมาถึง พวกเราจะจัดขบวนแห่ราตรีร้อยอสูร’” เกะโทผู้หมายมาดจะสร้างสรวงสวรรค์ที่มีแค่เพียงผู้ใช ้คุณไสย ได้ปล่อยคำสาปนับพันตนสู่ชินจูกุและเกียวโตประหนึ่งต ้องการกำจัดผู้ไร้วิชาให้สิ้นซาก-- ในท้ายที่สุดแล้วอคคทสึจะหยุดเกะโทได้หรือไม่ และการแก้คำสาปของริกะจะดำเนินต่อไปในทิศทางใด...

    Video
    ID : 1
    Format : AVC
    Format/Info : Advanced Video Codec
    Format profile : [email protected]
    Format settings, CABAC : Yes
    Format settings, RefFrames : 4 frames
    Codec ID : V_MPEG4/ISO/AVC
    Duration : 1 h 44 min
    Bit rate : 2 805 kb/s
    Width : 1 920 pixels
    Height : 802 pixels
    Display aspect ratio : 2.40:1
    Frame rate mode : Constant
    Frame rate : 23.976 (24000/1001) FPS
    Color space : YUV
    Chroma subsampling : 4:2:0
    Bit depth : 8 bits
    Scan type : Progressive
    Bits/(Pixel*Frame) : 0.076
    Stream size : 2.06 GiB (80%)
    Writing library : x264 core 155 r2901 7d0ff22
    Encoding settings : cabac=1 / ref=2 / deblock=1:0:0 / analyse=0x1:0x111 / me=hex / subme=6 / psy=1 / psy_rd=1.00:0.00 / mixed_ref=1 / me_range=16 / chroma_me=1 / trellis=1 / 8x8dct=0 / cqm=0 / deadzone=21,11 / fast_pskip=1 / chroma_qp_offset=-2 / threads=18 / lookahead_threads=3 / sliced_threads=0 / nr=0 / decimate=1 / interlaced=0 / bluray_compat=0 / constrained_intra=0 / bframes=3 / b_pyramid=2 / b_adapt=1 / b_bias=0 / direct=1 / weightb=1 / open_gop=0 / weightp=1 / keyint=240 / keyint_min=24 / scenecut=40 / intra_refresh=0 / rc_lookahead=30 / rc=crf / mbtree=1 / crf=18.0 / qcomp=0.60 / qpmin=0 / qpmax=69 / qpstep=4 / vbv_maxrate=20000 / vbv_bufsize=25000 / crf_max=0.0 / nal_hrd=none / filler=0 / ip_ratio=1.40 / aq=1:1.00
    Default : Yes
    Forced : No
    Color range : Limited
    Color primaries : BT.709
    Transfer characteristics : BT.709
    Matrix coefficients : BT.709
    Statistics Tags Issue : mkvmerge v67.0.0 ('Under Stars') 64-bit 2022-09-21 09:31:13 / mkvmerge v67.0.0 ('Under Stars') 64-bit 2022-09-21 09:31:13 / UTC 2022-09-20T15:15:52Z
    FromStats_BitRate : 2823209
    FromStats_Duration : 01:44:57.250000000
    FromStats_FrameCount : 150983
    FromStats_StreamSize : 2222307296

    Audio
    ID : 2
    Format : AC-3
    Format/Info : Audio Coding 3
    Format settings, Endianness : Big
    Codec ID : A_AC3
    Duration : 1 h 44 min
    Bit rate mode : Constant
    Bit rate : 640 kb/s
    Channel(s) : 6 channels
    Channel positions : Front: L C R, Side: L R, LFE
    Sampling rate : 48.0 kHz
    Frame rate : 31.250 FPS (1536 SPF)
    Bit depth : 16 bits
    Compression mode : Lossy
    Stream size : 480 MiB (18%)
    Title : [Japanese-AC-3]
    Language : Japanese
    Service kind : Complete Main
    Default : Yes
    Forced : No
    Statistics Tags Issue : mkvmerge v67.0.0 ('Under Stars') 64-bit 2022-09-21 09:31:13 / mkvmerge v67.0.0 ('Under Stars') 64-bit 2022-09-21 09:31:13 / UTC 2022-09-20T15:15:52Z
    FromStats_BitRate : 640000
    FromStats_Duration : 01:44:57.312000000
    FromStats_FrameCount : 196791
    FromStats_StreamSize : 503784960

    Text #1
    ID : 3
    Format : PGS
    Muxing mode : zlib
    Codec ID : S_HDMV/PGS
    Codec ID/Info : Picture based subtitle format used on BDs/HD-DVDs
    Title : [Thai PGS]
    Language : Thai
    Default : Yes
    Forced : No
    Statistics Tags Issue : mkvmerge v67.0.0 ('Under Stars') 64-bit 2022-09-21 09:31:13 / mkvmerge v67.0.0 ('Under Stars') 64-bit 2022-09-21 09:31:13 / UTC 2022-09-20T15:15:52Z
    FromStats_BitRate : 57556
    FromStats_Duration : 01:44:08.200000000
    FromStats_FrameCount : 2846
    FromStats_StreamSize : 44953086

    Text #2
    ID : 4
    Format : PGS
    Muxing mode : zlib
    Codec ID : S_HDMV/PGS
    Codec ID/Info : Picture based subtitle format used on BDs/HD-DVDs
    Title : [Japanese PGS]
    Language : Japanese
    Default : No
    Forced : No
    Statistics Tags Issue : mkvmerge v67.0.0 ('Under Stars') 64-bit 2022-09-21 09:31:13 / mkvmerge v67.0.0 ('Under Stars') 64-bit 2022-09-21 09:31:13 / UTC 2022-09-20T15:15:52Z
    FromStats_BitRate : 33643
    FromStats_Duration : 01:44:21.005000000
    FromStats_FrameCount : 3079
    FromStats_StreamSize : 26330551

    Text #3
    ID : 5
    Format : PGS
    Muxing mode : zlib
    Codec ID : S_HDMV/PGS
    Codec ID/Info : Picture based subtitle format used on BDs/HD-DVDs
    Title : [English PGS]
    Language : English
    Default : No
    Forced : No
    Statistics Tags Issue : mkvmerge v67.0.0 ('Under Stars') 64-bit 2022-09-21 09:31:13 / mkvmerge v67.0.0 ('Under Stars') 64-bit 2022-09-21 09:31:13 / UTC 2022-09-20T15:15:52Z
    FromStats_BitRate : 34373
    FromStats_Duration : 01:44:08.492000000
    FromStats_FrameCount : 2800
    FromStats_StreamSize : 26847773

    Menu
    00:00:00.000 : :Chapter 1
    00:00:27.027 : :Chapter 2
    00:06:25.760 : :Chapter 3
    00:26:05.606 : :Chapter 4
    00:46:32.540 : :Chapter 5
    01:06:21.561 : :Chapter 6
    01:35:46.074 : :Chapter 7
    01:43:35.543 : :Chapter 8








    Download:filecondo
    http://www.filecondo.com/dl.php?f=vf5d8d1OAZHS
    Download:cornfile
    https://www.cornfile.com/ihi3f67xwdq4

  2. The Following User Says Thank You to Duckload.us For This Useful Post:

    Wesker_TOT (09-22-2022)

  3. #2
    Senior Member
    สมัครเมื่อ
    Dec 2013
    โพสต์
    3,975
    Thanks
    5,877
    Thanked 0 Times in 0 Posts
    ขอบคุณครับ...

+ ตอบกลับกระทู้

ข้อมูลกระทู้

Users Browsing this Thread

ในขณะนี้มี 1 ท่านดูกระทู้อยู่. (0 สมาชิกและ 1 ผู้เยี่ยมชม)

     

กฎการโพสต์ข้อความ

  • ท่าน ไม่สามารถ ตั้งกระทู้ใหม่ได้
  • ท่าน ไม่สามารถ ตอบกระทู้ได้
  • ท่าน ไม่สามารถ แนบไฟล์ได้
  • ท่าน ไม่สามารถ แก้ไขข้อความโพสต์ได้
  • BB code สถานะ เปิด
  • Smilies สถานะ เปิด
  • [IMG] สถานะ เปิด
  • HTML สถานะ ปิด