+ ตอบกลับกระทู้
สรุปผลการค้นหา 1 ถึง 3 จากทั้งหมด 3
  1. #1
    Administrators รูปส่วนตัว Duckload.us
    สมัครเมื่อ
    Dec 2010
    โพสต์
    138,184
    Thanks
    7
    Thanked 144,397 Times in 62,757 Posts

    Thumbs up [เกาหลี]-The Witch: Part 2. The Other One (2022) แม่มดมือสังหาร 2 [WEB-DL.H.264.1080p.Rip]- (Soundtrack บรรยายไทยแปลโดย กิตติพล กันต์กวี)



    The Witch: Part 2. The Other One (2022) แม่มดมือสังหาร 2
    เป็นเรื่องราวของเด็กสาวได้ตื่นขึ้นมาอยู่ในห้องทดลอ งขนาดใหญ่
    เธอได้พยายามหลบหนีออกมาจากที่นั่น ทำให้ได้มาพบกับ คยองฮี
    ที่พยายามปกป้องเธอจากแก๊งอาชญากร แต่เมื่อเด็กสาวต้องเผชิญหน้า
    กับพวกมันด้วยตัวเองนั่น เธอสามารถเอาชนะได้ด้วยพละกำลังที่มหาศาล
    อย่างน่าทึ่ง ในขณะเดียวกันก็มีคนอีกกลุ่มหนึ่งตามไล่ล่าเด็กคนนี้ อยู่เช่นกัน
    เธอผู้นี้เป็นใคร? แล้วทำไมถึงมีใครอยากได้ตัวเด็กสาวผู้นี้กันมากนัก?

    General
    Complete name : The.Witch.Part.2.2022.1080p.WEBRip.AC3DD5.1.x264.T H-NW.mkv
    Format : Matroska
    Format version : Version 4
    File size : 8.08 GiB
    Duration : 2 h 17 min
    Overall bit rate : 8 419 kb/s
    Movie name : The.Witch.Part.2.2022.1080p.WEBRip.AC3DD5.1.x264.T H-NW
    Encoded date : UTC 2022-09-19 08:24:50
    Writing application : mkvmerge v68.0.0 ('The Curtain') 64-bit
    Writing library : libebml v1.4.2 + libmatroska v1.6.4

    Video
    ID : 1
    Format : AVC
    Format/Info : Advanced Video Codec
    Format profile : [email protected]
    Format settings : CABAC / 2 Ref Frames
    Format settings, CABAC : Yes
    Format settings, Reference frames : 2 frames
    Format settings, GOP : M=1, N=30
    Codec ID : V_MPEG4/ISO/AVC
    Duration : 2 h 17 min
    Bit rate mode : Constant
    Bit rate : 8 000 kb/s
    Width : 1 920 pixels
    Height : 1 080 pixels
    Display aspect ratio : 16:9
    Frame rate mode : Constant
    Frame rate : 23.976 (24000/1001) FPS
    Color space : YUV
    Chroma subsampling : 4:2:0
    Bit depth : 8 bits
    Scan type : Progressive
    Bits/(Pixel*Frame) : 0.161
    Stream size : 7.68 GiB (95%)
    Title : The.Witch.Part.2.2022.1080p.WEBRip.AC3DD5.1.x264.T H-NW
    Language : Korean
    Default : Yes
    Forced : No

    Audio
    ID : 2
    Format : AC-3
    Format/Info : Audio Coding 3
    Commercial name : Dolby Digital
    Codec ID : A_AC3
    Duration : 2 h 17 min
    Bit rate mode : Constant
    Bit rate : 384 kb/s
    Channel(s) : 6 channels
    Channel layout : L R C LFE Ls Rs
    Sampling rate : 48.0 kHz
    Frame rate : 31.250 FPS (1536 SPF)
    Compression mode : Lossy
    Stream size : 378 MiB (5%)
    Title : Korean AC-3 DD5.1
    Language : Korean
    Service kind : Complete Main
    Default : No
    Forced : No

    Text #1
    ID : 3
    Format : UTF-8
    Codec ID : S_TEXT/UTF8
    Codec ID/Info : UTF-8 Plain Text
    Duration : 2 h 15 min
    Bit rate : 32 b/s
    Frame rate : 0.159 FPS
    Count of elements : 1294
    Stream size : 32.2 KiB (0%)
    Title : SRT Full
    Language : English
    Default : No
    Forced : No

    Text #2
    ID : 4
    Format : VobSub
    Muxing mode : zlib
    Codec ID : S_VOBSUB
    Codec ID/Info : Picture based subtitle format used on DVDs
    Duration : 2 h 16 min
    Bit rate : 5 176 b/s
    Frame rate : 0.160 FPS
    Count of elements : 1308
    Stream size : 5.04 MiB (0%)
    Title : VOB
    Language : Thai
    Default : Yes
    Forced : No

    Text #3
    ID : 5
    Format : PGS
    Muxing mode : zlib
    Codec ID : S_HDMV/PGS
    Codec ID/Info : Picture based subtitle format used on BDs/HD-DVDs
    Duration : 2 h 16 min
    Bit rate : 20.9 kb/s
    Frame rate : 0.321 FPS
    Count of elements : 2616
    Stream size : 20.3 MiB (0%)
    Title : PGS-DST
    Language : Thai
    Default : Yes
    Forced : No

    Text #4
    ID : 6
    Format : PGS
    Muxing mode : zlib
    Codec ID : S_HDMV/PGS
    Codec ID/Info : Picture based subtitle format used on BDs/HD-DVDs
    Duration : 2 h 16 min
    Bit rate : 19.1 kb/s
    Frame rate : 0.321 FPS
    Count of elements : 2616
    Stream size : 18.6 MiB (0%)
    Title : PGS-EUC2
    Language : Thai
    Default : Yes
    Forced : No

    Text #5
    ID : 7
    Format : PGS
    Muxing mode : zlib
    Codec ID : S_HDMV/PGS
    Codec ID/Info : Picture based subtitle format used on BDs/HD-DVDs
    Duration : 2 h 16 min
    Bit rate : 18.6 kb/s
    Frame rate : 0.321 FPS
    Count of elements : 2616
    Stream size : 18.1 MiB (0%)
    Title : PGS-AS
    Language : Thai
    Default : Yes
    Forced : No





    Download:filecondo
    http://www.filecondo.com/dl.php?f=se396f1OB055
    Download:cornfile
    https://www.cornfile.com/bs8hab6xxwo0

  2. The Following 3 Users Say Thank You to Duckload.us For This Useful Post:

    masaomi (09-25-2022), neorun (09-22-2022), Wesker_TOT (09-22-2022)

  3. #2
    Junior Member
    สมัครเมื่อ
    Mar 2020
    โพสต์
    7
    Thanks
    0
    Thanked 0 Times in 0 Posts
    ขอบคุณมากครับ

  4. #3
    Senior Member
    สมัครเมื่อ
    Dec 2013
    โพสต์
    3,975
    Thanks
    5,877
    Thanked 0 Times in 0 Posts
    ขอบคุณครับ...

+ ตอบกลับกระทู้

ข้อมูลกระทู้

Users Browsing this Thread

ในขณะนี้มี 1 ท่านดูกระทู้อยู่. (0 สมาชิกและ 1 ผู้เยี่ยมชม)

     

กฎการโพสต์ข้อความ

  • ท่าน ไม่สามารถ ตั้งกระทู้ใหม่ได้
  • ท่าน ไม่สามารถ ตอบกระทู้ได้
  • ท่าน ไม่สามารถ แนบไฟล์ได้
  • ท่าน ไม่สามารถ แก้ไขข้อความโพสต์ได้
  • BB code สถานะ เปิด
  • Smilies สถานะ เปิด
  • [IMG] สถานะ เปิด
  • HTML สถานะ ปิด