+ ตอบกลับกระทู้
สรุปผลการค้นหา 1 ถึง 2 จากทั้งหมด 2
  1. #1
    Administrators รูปส่วนตัว Duckload.us
    สมัครเมื่อ
    Dec 2010
    โพสต์
    138,184
    Thanks
    7
    Thanked 144,399 Times in 62,758 Posts

    Thumbs up [ฝรั่ง]-Breaking (2022) [ผลงานจากเทศกาลหนังซันแดนซ์ปี 2022 นำแสดงโดย John Boyega และ Michael K. Williams][Thai Subtitle by Unknown][Soundtrack บรรยายไทย (แปล)]




    เรื่องย่อ
    สร้างจากเรื่องจริงของไบรอัน บราวน์-อีสลี่ย์ อดีตนาวิกโยธินที่ชีวิตต้องพบกับปัญหาขั้นสุด
    หลังจากที่เขาโดนกรมทหารผ่านศึกริบเงินเบี้ยเลี้ยงผู ้พิการ เมื่อไม่มีใครสนใจปัญหาที่เกิดขึ้นกับเขา
    หนทางเดียวที่เขามองเห็นคือบุกเข้าไปในธนาคารพร้อมระ เบิดในกระเป๋าและจับตัวประกันเอาไว้
    โดยสิ่งเดียวที่เขาเรียกร้องคือเงินที่เขาควรได้รับก ับขอให้ทุกคนหันมาฟังเรื่องของเขาสักที

    General
    Complete name : Breaking.2022.1080p.WEB-DL.DDP5.1.Atmos.H.264-CM.mkv
    Format : Matroska
    Format version : Version 2
    File size : 5.37 GiB
    Duration : 1 h 43 min
    Overall bit rate : 7 432 kb/s
    Encoded date : UTC 2022-09-22 07:09:08
    Writing application : mkvmerge v5.8.0 ('No Sleep / Pillow') built on Sep 2 2012 15:37:04
    Writing library : libebml v1.2.3 + libmatroska v1.3.0

    Video
    ID : 1
    Format : AVC
    Format/Info : Advanced Video Codec
    Format profile : [email protected]
    Format settings, CABAC : Yes
    Format settings, RefFrames : 5 frames
    Muxing mode : Header stripping
    Codec ID : V_MPEG4/ISO/AVC
    Duration : 1 h 43 min
    Bit rate : 6 516 kb/s
    Width : 1 918 pixels
    Height : 802 pixels
    Display aspect ratio : 2.40:1
    Frame rate mode : Constant
    Frame rate : 23.976 (24000/1001) FPS
    Color space : YUV
    Chroma subsampling : 4:2:0
    Bit depth : 8 bits
    Scan type : Progressive
    Bits/(Pixel*Frame) : 0.177
    Stream size : 4.70 GiB (88%)
    Language : English
    Default : Yes
    Forced : No
    Color range : Limited
    Color primaries : BT.709
    Transfer characteristics : BT.709
    Matrix coefficients : BT.709
    FromStats_BitRate : 6657900
    FromStats_Duration : 01:43:22.155000000
    FromStats_FrameCount : 148703
    FromStats_StreamSize : 5161666601

    Audio
    ID : 2
    Format : E-AC-3
    Format/Info : Enhanced Audio Coding 3
    Format profile : E-AC-3+Atmos / E-AC-3
    Format settings, Endianness : Big
    Muxing mode : Header stripping
    Codec ID : A_EAC3
    Duration : 1 h 43 min
    Bit rate mode : Constant
    Bit rate : 768 kb/s
    Channel(s) : 15 objects / 6 channels
    Channel positions : 15 objects / Front: L C R, Side: L R, LFE
    Sampling rate : 48.0 kHz
    Frame rate : 187.500 FPS (256 SPF)
    Compression mode : Lossy
    Stream size : 568 MiB (10%)
    Language : English
    Service kind : Complete Main
    Default : Yes
    Forced : No
    FromStats_BitRate : 768000
    FromStats_Duration : 01:43:22.176000000
    FromStats_FrameCount : 193818
    FromStats_StreamSize : 595408896

    Text #1
    ID : 3
    Format : VobSub
    Muxing mode : zlib
    Codec ID : S_VOBSUB
    Codec ID/Info : Picture based subtitle format used on DVDs
    Title : Thai - Subtitle by Unknown
    Language : Thai
    Default : Yes
    Forced : No

    Text #2
    ID : 4
    Format : UTF-8
    Codec ID : S_TEXT/UTF8
    Codec ID/Info : UTF-8 Plain Text
    Title : Thai.srt - Subtitle by Unknown
    Language : Thai
    Default : No
    Forced : No

    Text #3
    ID : 5
    Format : UTF-8
    Codec ID : S_TEXT/UTF8
    Codec ID/Info : UTF-8 Plain Text
    Title : English
    Language : English
    Default : No
    Forced : No
    Forced : No









    Download:filecondo
    http://www.filecondo.com/dl.php?f=O28b2c1OBksw
    Download:cornfile
    https://www.cornfile.com/rmjzp6wtf3b5

  2. The Following User Says Thank You to Duckload.us For This Useful Post:

    jackjangri (09-24-2022)

  3. #2
    I'm donate !
    สมัครเมื่อ
    Jun 2011
    โพสต์
    508
    Thanks
    660
    Thanked 40 Times in 29 Posts
    thankyou...

+ ตอบกลับกระทู้

ข้อมูลกระทู้

Users Browsing this Thread

ในขณะนี้มี 1 ท่านดูกระทู้อยู่. (0 สมาชิกและ 1 ผู้เยี่ยมชม)

     

กฎการโพสต์ข้อความ

  • ท่าน ไม่สามารถ ตั้งกระทู้ใหม่ได้
  • ท่าน ไม่สามารถ ตอบกระทู้ได้
  • ท่าน ไม่สามารถ แนบไฟล์ได้
  • ท่าน ไม่สามารถ แก้ไขข้อความโพสต์ได้
  • BB code สถานะ เปิด
  • Smilies สถานะ เปิด
  • [IMG] สถานะ เปิด
  • HTML สถานะ ปิด