+ ตอบกลับกระทู้
สรุปผลการค้นหา 1 ถึง 2 จากทั้งหมด 2
  1. #1
    Administrators รูปส่วนตัว Duckload.us
    สมัครเมื่อ
    Dec 2010
    โพสต์
    139,866
    Thanks
    7
    Thanked 146,393 Times in 63,688 Posts

    Thumbs up [จีน] Reincarnation Land (2022) ตำนานลั่วหยาง อาณาจักรแห่งหยินหยาง [พากย์:จีน/ไทย มาสเตอร์][SUB:ไทย][1080p]



    ในสมัยราชวงศ์อู่โจว สองสาวที่กำเนิดต่างกันอาศัยอยู่สองฝั่งของปลายแม่น้ ำลั่วในเมืองลั่วหยางและบังเอิญได้เข้าไปพัวพันกับคด ีที่ยังไม่คลี่คลาย ทั้งสองได้ร่วมมือกันเปิดโปงเรื่องราวสมรู้ร่วมคิดขอ งจอมวายร้าย ตัวเอกสองคนในเรื่องคือจ้าวชิงชิงลูกสาวของหัวหน้าทห ารองครักษ์จินอู๋และหญิงสาวนักต้มตุ๋นที่อาศัยอยู่แห ล่งซอมซ่อของเมือง คนสองคนที่เดิมมีชีวิตที่แตกต่างกันโดยสิ้นเชิง หลังจากที่ได้พบเจอกับคดีแปลกประหลาดมากมายในเมืองลั ่วหยาง กลายเป็นคู่หู พวกเขาผ่านบททดสอบมากมาย ยังคงรักษาความยุติธรรมในโลกที่แสนวุ่นวายด้วยหัวใจท ี่กล้าหาญ

    Format : Matroska
    Format version : Version 4
    File size : 3.47 GiB
    Duration : 1 h 23 min
    Overall bit rate : 5 937 kb/s
    Movie name : Reincarnation Land (2022)_©GOLD CUP™_WWW.TT-TORRENT.COM

    Video #1
    ID : 1
    Format : AVC
    Format/Info : Advanced Video Codec
    Format profile : [email protected]
    Format settings : CABAC / 4 Ref Frames
    Format settings, CABAC : Yes
    Format settings, Reference : 4 frames
    Codec ID : V_MPEG4/ISO/AVC
    Duration : 1 h 23 min
    Bit rate : 2 777 kb/s
    Nominal bit rate : 3 000 kb/s
    Width : 1 920 pixels
    Height : 722 pixels
    Display aspect ratio : 2.659
    Frame rate mode : Constant
    Frame rate : 24.000 FPS
    Color space : YUV
    Chroma subsampling : 4:2:0
    Bit depth : 8 bits
    Scan type : Progressive
    Bits/(Pixel*Frame) : 0.083
    Stream size : 1.62 GiB (47%)
    Title : Reincarnation Land (2022)_©GOLD CUP™
    Writing library : x264 core 157 r2935 545de2f
    Language : Thai
    Default : Yes
    Forced : No
    Color range : Limited
    Color primaries : BT.709
    Transfer characteristics : BT.709
    Matrix coefficients : BT.709

    Video #2
    ID : 2
    Format : AVC
    Format/Info : Advanced Video Codec
    Format profile : [email protected]
    Format settings : CABAC / 4 Ref Frames
    Format settings, CABAC : Yes
    Format settings, Reference : 4 frames
    Codec ID : V_MPEG4/ISO/AVC
    Duration : 1 h 23 min
    Bit rate : 2 776 kb/s
    Nominal bit rate : 3 000 kb/s
    Width : 1 920 pixels
    Height : 722 pixels
    Display aspect ratio : 2.659
    Frame rate mode : Constant
    Frame rate : 24.000 FPS
    Color space : YUV
    Chroma subsampling : 4:2:0
    Bit depth : 8 bits
    Scan type : Progressive
    Bits/(Pixel*Frame) : 0.083
    Stream size : 1.62 GiB (47%)
    Writing library : x264 core 157 r2935 545de2f
    Language : English
    Default : Yes
    Forced : No
    Color range : Limited
    Color primaries : BT.709
    Transfer characteristics : BT.709
    Matrix coefficients : BT.709

    Audio #1
    ID : 3
    Format : AAC LC
    Format/Info : Advanced Audio Codec Low Complexity
    Codec ID : A_AAC-2
    Duration : 1 h 23 min
    Bit rate : 192 kb/s
    Channel(s) : 2 channels
    Channel layout : L R
    Sampling rate : 44.1 kHz
    Frame rate : 43.066 FPS (1024 SPF)
    Compression mode : Lossy
    Delay relative to video : -83 ms
    Stream size : 113 MiB (3%)
    Title : Th.AAC.2.0_192 kbs
    Language : Thai
    Default : Yes
    Forced : No

    Audio #2
    ID : 4
    Format : AAC LC
    Format/Info : Advanced Audio Codec Low Complexity
    Codec ID : A_AAC-2
    Duration : 1 h 23 min
    Bit rate : 192 kb/s
    Channel(s) : 2 channels
    Channel layout : L R
    Sampling rate : 44.1 kHz
    Frame rate : 43.066 FPS (1024 SPF)
    Compression mode : Lossy
    Delay relative to video : -83 ms
    Stream size : 113 MiB (3%)
    Title : Chi.AAC.2.0_187 kbs
    Language : Chinese
    Default : Yes
    Forced : No





    Download:filecondo
    http://www.filecondo.com/dl.php?f=v5249b1OC1Du
    Download:cornfile
    https://www.cornfile.com/4kqt45empb6q

  2. The Following 4 Users Say Thank You to Duckload.us For This Useful Post:

    agg001 (09-24-2022), Jodz14 (09-25-2022), masaomi (09-30-2022), noi54 (09-25-2022)

  3. #2
    Senior Member
    สมัครเมื่อ
    Jun 2012
    โพสต์
    1,605
    Thanks
    0
    Thanked 1 Time in 1 Post
    ขอบคุณครับ

+ ตอบกลับกระทู้

ข้อมูลกระทู้

Users Browsing this Thread

ในขณะนี้มี 1 ท่านดูกระทู้อยู่. (0 สมาชิกและ 1 ผู้เยี่ยมชม)

     

กฎการโพสต์ข้อความ

  • ท่าน ไม่สามารถ ตั้งกระทู้ใหม่ได้
  • ท่าน ไม่สามารถ ตอบกระทู้ได้
  • ท่าน ไม่สามารถ แนบไฟล์ได้
  • ท่าน ไม่สามารถ แก้ไขข้อความโพสต์ได้
  • BB code สถานะ เปิด
  • Smilies สถานะ เปิด
  • [IMG] สถานะ เปิด
  • HTML สถานะ ปิด