+ ตอบกลับกระทู้
สรุปผลการค้นหา 1 ถึง 3 จากทั้งหมด 3
  1. #1
    Administrators รูปส่วนตัว Duckload.us
    สมัครเมื่อ
    Dec 2010
    โพสต์
    139,872
    Thanks
    7
    Thanked 146,393 Times in 63,688 Posts

    Thumbs up [NETFLIX] Athena (2022) อเธน่า [พากย์:ไทย/ฝรั่งเศส/อังกฤษ][SUB:ไทย+อังกฤษ][1080p] [DDP 5.1][h264][ซับไทย Original NETFLIX PGS+Vobsub+SRT]



    2022 | 16+ | 1 ชั่วโมง 37 นาที | แอ็คชั่นและผจญภัย

    การปลิดชีวิตเด็กหนุ่มอย่างน่าสลดจุดชนวนให้เกิดสงคร ามขนานใหญ่ในชุมชนอเธน่า โดยมีพี่ชายของเหยื่อผู้เคราะห์ร้ายอยู่ใจกลางของควา มขัดแย้ง

    นักแสดงนำ:ดาลี เบนส์ซาลาห์,ซามี ซลีมาน,อันโธนี บาฮอน


    Format : Matroska
    Format version : Version 4 / Version 2
    File size : 3.22 GiB
    Duration : 1 h 39 min
    Overall bit rate mode : Variable
    Overall bit rate : 4 629 kb/s
    Movie name : [email protected]
    Encoded date : UTC 2022-09-23 12:04:20
    Writing application : mkvmerge v63.0.0 ('Everything') 64-bit
    Writing library : libebml v1.4.2 + libmatroska v1.6.4
    Cover : Yes
    Attachments : cover.png

    Video
    ID : 1
    Format : AVC
    Format/Info : Advanced Video Codec
    Format profile : [email protected]
    Format settings, CABAC : Yes
    Format settings, RefFrames : 4 frames
    Codec ID : V_MPEG4/ISO/AVC
    Duration : 1 h 39 min
    Bit rate mode : Variable
    Bit rate : 2 411 kb/s
    Maximum bit rate : 20.0 Mb/s
    Width : 1 920 pixels
    Height : 1 080 pixels
    Display aspect ratio : 16:9
    Frame rate mode : Constant
    Frame rate : 24.000 FPS
    Color space : YUV
    Chroma subsampling : 4:2:0
    Bit depth : 8 bits
    Scan type : Progressive
    Bits/(Pixel*Frame) : 0.048
    Stream size : 1.68 GiB (52%)
    Writing library : x264 core 148 r2727 7d026e8
    Encoding settings : cabac=1 / ref=4 / deblock=1:0:0 / analyse=0x3:0x111 / me=umh / subme=10 / psy=1 / psy_rd=1.00:0.00 / mixed_ref=1 / me_range=120 / chroma_me=1 / trellis=2 / 8x8dct=1 / cqm=0 / deadzone=21,11 / fast_pskip=1 / chroma_qp_offset=-2 / threads=8 / lookahead_threads=2 / sliced_threads=0 / nr=0 / decimate=1 / interlaced=0 / bluray_compat=0 / stitchable=1 / constrained_intra=0 / bframes=16 / b_pyramid=2 / b_adapt=2 / b_bias=0 / direct=3 / weightb=1 / open_gop=0 / weightp=2 / keyint=240 / keyint_min=121 / scenecut=0 / intra_refresh=0 / rc_lookahead=240 / rc=crf / mbtree=1 / crf=16.0 / qcomp=0.50 / qpmin=6 / qpmax=51 / qpstep=4 / vbv_maxrate=20000 / vbv_bufsize=25000 / crf_max=0.0 / nal_hrd=vbr / filler=0 / ip_ratio=1.40 / aq=1:0.80
    Default : Yes
    Forced : No

    Audio #1
    ID : 2
    Format : E-AC-3
    Format/Info : Enhanced Audio Coding 3
    Format settings, Endianness : Big
    Codec ID : A_EAC3
    Duration : 1 h 39 min
    Bit rate mode : Constant
    Bit rate : 640 kb/s
    Channel(s) : 6 channels
    Channel positions : Front: L C R, Side: L R, LFE
    Sampling rate : 48.0 kHz
    Frame rate : 187.500 FPS (256 SPF)
    Compression mode : Lossy
    Stream size : 456 MiB (14%)
    Title : Thai-DDP 5.1
    Language : Thai
    Service kind : Complete Main
    Default : Yes
    Forced : Yes

    Audio #2
    ID : 3
    Format : E-AC-3
    Format/Info : Enhanced Audio Coding 3
    Format profile : E-AC-3+Atmos / E-AC-3
    Format settings, Endianness : Big
    Codec ID : A_EAC3
    Duration : 1 h 39 min
    Bit rate mode : Constant
    Bit rate : 768 kb/s
    Channel(s) : 15 objects / 6 channels
    Channel positions : 15 objects / Front: L C R, Side: L R, LFE
    Sampling rate : 48.0 kHz
    Frame rate : 187.500 FPS (256 SPF)
    Compression mode : Lossy
    Stream size : 547 MiB (17%)
    Title : French-DDP 5.1+Atmos
    Language : French
    Service kind : Complete Main
    Default : Yes
    Forced : No

    Audio #3
    ID : 4
    Format : E-AC-3
    Format/Info : Enhanced Audio Coding 3
    Format profile : E-AC-3+Atmos / E-AC-3
    Format settings, Endianness : Big
    Codec ID : A_EAC3
    Duration : 1 h 39 min
    Bit rate mode : Constant
    Bit rate : 768 kb/s
    Channel(s) : 15 objects / 6 channels
    Channel positions : 15 objects / Front: L C R, Side: L R, LFE
    Sampling rate : 48.0 kHz
    Frame rate : 187.500 FPS (256 SPF)
    Compression mode : Lossy
    Stream size : 547 MiB (17%)
    Title : English UK-DDP 5.1+Atmos
    Language : English
    Service kind : Complete Main
    Default : Yes
    Forced : No

    Text #1
    ID : 5
    Format : PGS
    Muxing mode : zlib
    Codec ID : S_HDMV/PGS
    Codec ID/Info : Picture based subtitle format used on BDs/HD-DVDs
    Duration : 1 h 31 min
    Bit rate : 634 b/s
    Count of elements : 30
    Stream size : 427 KiB (0%)
    Title : Thai-FORCED PGS From Original NETFLIX
    Language : Thai
    Default : Yes
    Forced : Yes

    Text #2
    ID : 6
    Format : VobSub
    Muxing mode : zlib
    Codec ID : S_VOBSUB
    Codec ID/Info : Picture based subtitle format used on DVDs
    Duration : 1 h 31 min
    Bit rate : 126 b/s
    Count of elements : 15
    Stream size : 85.1 KiB (0%)
    Title : Thai-FORCED VOBSUB From Original NETFLIX
    Language : Thai
    Default : Yes
    Forced : No

    Text #3
    ID : 7
    Format : PGS
    Muxing mode : zlib
    Codec ID : S_HDMV/PGS
    Codec ID/Info : Picture based subtitle format used on BDs/HD-DVDs
    Duration : 1 h 36 min
    Bit rate : 21.9 kb/s
    Count of elements : 1892
    Stream size : 15.2 MiB (0%)
    Title : Thai-PGS NETFLIX [Angsana]
    Language : Thai
    Default : Yes
    Forced : No

    Text #4
    ID : 8
    Format : PGS
    Muxing mode : zlib
    Codec ID : S_HDMV/PGS
    Codec ID/Info : Picture based subtitle format used on BDs/HD-DVDs
    Duration : 1 h 36 min
    Bit rate : 31.2 kb/s
    Count of elements : 1892
    Stream size : 21.7 MiB (1%)
    Title : Thai-PGS From Original NETFLIX
    Language : Thai
    Default : Yes
    Forced : No

    Text #5
    ID : 9
    Format : VobSub
    Muxing mode : zlib
    Codec ID : S_VOBSUB
    Codec ID/Info : Picture based subtitle format used on DVDs
    Duration : 1 h 36 min
    Bit rate : 5 264 b/s
    Count of elements : 945
    Stream size : 3.65 MiB (0%)
    Title : Thai-VOBSUB NETFLIX [Angsana]
    Language : Thai
    Default : Yes
    Forced : No

    Text #6
    ID : 10
    Format : VobSub
    Muxing mode : zlib
    Codec ID : S_VOBSUB
    Codec ID/Info : Picture based subtitle format used on DVDs
    Duration : 1 h 36 min
    Bit rate : 6 078 b/s
    Count of elements : 946
    Stream size : 4.22 MiB (0%)
    Title : Thai-VOBSUB From Original NETFLIX
    Language : Thai
    Default : Yes
    Forced : No

    Text #7
    ID : 11
    Format : UTF-8
    Codec ID : S_TEXT/UTF8
    Codec ID/Info : UTF-8 Plain Text
    Duration : 1 h 31 min
    Bit rate : 1 b/s
    Count of elements : 12
    Stream size : 712 Bytes (0%)
    Title : Thai-FORCED SRT
    Language : Thai
    Default : Yes
    Forced : No

    Text #8
    ID : 12
    Format : UTF-8
    Codec ID : S_TEXT/UTF8
    Codec ID/Info : UTF-8 Plain Text
    Duration : 1 h 36 min
    Bit rate : 73 b/s
    Count of elements : 946
    Stream size : 52.5 KiB (0%)
    Title : Thai-SRT
    Language : Thai
    Default : Yes
    Forced : No

    Text #9
    ID : 13
    Format : UTF-8
    Codec ID : S_TEXT/UTF8
    Codec ID/Info : UTF-8 Plain Text
    Duration : 1 h 31 min
    Bit rate : 71 b/s
    Count of elements : 1326
    Stream size : 48.2 KiB (0%)
    Title : English UK-SRT
    Language : English
    Default : Yes
    Forced : No












    Download:filecondo
    http://www.filecondo.com/dl.php?f=pce4541OC1Xt
    Download:cornfile
    https://www.cornfile.com/0u638dwzpyn4

  2. The Following 3 Users Say Thank You to Duckload.us For This Useful Post:

    Jodz14 (09-25-2022), noi54 (09-25-2022), sawara (10-09-2022)

  3. #2
    Senior Member
    สมัครเมื่อ
    Jul 2013
    โพสต์
    3,529
    Thanks
    0
    Thanked 0 Times in 0 Posts
    ขอบคุณครับ

  4. #3
    Senior Member
    สมัครเมื่อ
    Dec 2013
    โพสต์
    698
    Thanks
    648
    Thanked 0 Times in 0 Posts
    ขอบคุณครับบ

+ ตอบกลับกระทู้

ข้อมูลกระทู้

Users Browsing this Thread

ในขณะนี้มี 1 ท่านดูกระทู้อยู่. (0 สมาชิกและ 1 ผู้เยี่ยมชม)

     

กฎการโพสต์ข้อความ

  • ท่าน ไม่สามารถ ตั้งกระทู้ใหม่ได้
  • ท่าน ไม่สามารถ ตอบกระทู้ได้
  • ท่าน ไม่สามารถ แนบไฟล์ได้
  • ท่าน ไม่สามารถ แก้ไขข้อความโพสต์ได้
  • BB code สถานะ เปิด
  • Smilies สถานะ เปิด
  • [IMG] สถานะ เปิด
  • HTML สถานะ ปิด