+ ตอบกลับกระทู้
สรุปผลการค้นหา 1 ถึง 5 จากทั้งหมด 5
  1. #1
    Administrators รูปส่วนตัว Duckload.us
    สมัครเมื่อ
    Dec 2010
    โพสต์
    139,866
    Thanks
    7
    Thanked 146,393 Times in 63,688 Posts

    Lightbulb [ฝรั่ง] Bullet Train (2022) ระห่ำด่วน ขบวนนักฆ่า [พากย์:อังกฤษ/ไทย มาสเตอร์][SUB:ไทย/อังกฤษ][1080p]



    ภาพยนตร์แอ็คชั่น ทริลเลอร์ ผลงานจาก ผู้กำกับ เดดพูล 2 “เดวิด ลิตช์” นำแสดงโดย “แบรด พิตต์” เป็น เลดี้บั๊ก นักฆ่าพาซวย โชคชะตามักจะมีอะไรเซอร์ไพรส์เสมอ กับภารกิจครั้งสำคัญที่ทำให้เขาต้องปะทะกับนักฆ่าจาก ทั่วโลก ทุกคนต่างมีเป้าหมายที่เกี่ยวข้องกันแต่ก็ต้องต่อกรก ันอย่างเลี่ยงไม่ได้บนรถไฟที่เร็วที่สุด...เขาจะลงจา กขบวนรถไฟได้อย่างไร ปลายทางสุดโกลาหล เป็นจุดเริ่มต้นความระห่ำ

    Format : Matroska
    Format version : Version 4
    File size : 6.71 GiB
    Duration : 2 h 6 min
    Overall bit rate : 7 579 kb/s
    Movie name : Bullet.Train.2022.1080p.WEB.h264.Dolby Atmos_©GOLD CUP™_WWW.TT-TORRENT.COM

    Video
    ID : 1
    Format : AVC
    Format/Info : Advanced Video Codec
    Format profile : [email protected]
    Format settings : CABAC / 5 Ref Frames
    Format settings, CABAC : Yes
    Format settings, Reference : 5 frames
    Codec ID : V_MPEG4/ISO/AVC
    Duration : 2 h 6 min
    Bit rate : 6 568 kb/s
    Width : 1 920 pixels
    Height : 792 pixels
    Display aspect ratio : 2.40:1
    Frame rate mode : Constant
    Frame rate : 23.976 (24000/1001) FPS
    Color space : YUV
    Chroma subsampling : 4:2:0
    Bit depth : 8 bits
    Scan type : Progressive
    Bits/(Pixel*Frame) : 0.180
    Stream size : 5.80 GiB (86%)
    Title : Bullet.Train.2022.1080p.WEB.h264.Dolby Atmos_©GOLD CUP™
    Language : English
    Default : Yes
    Forced : No
    Color range : Limited
    Color primaries : BT.709
    Transfer characteristics : BT.709
    Matrix coefficients : BT.709

    Audio #1
    ID : 2
    Format : E-AC-3 JOC
    Format/Info : Enhanced AC-3 with Joint Object Coding
    Commercial name : Dolby Digital Plus with Dolby Atmos
    Codec ID : A_EAC3
    Duration : 2 h 6 min
    Bit rate mode : Constant
    Bit rate : 768 kb/s
    Channel(s) : 6 channels
    Channel layout : L R C LFE Ls Rs
    Sampling rate : 48.0 kHz
    Frame rate : 31.250 FPS (1536 SPF)
    Compression mode : Lossy
    Stream size : 695 MiB (10%)
    Title : En.EAC3.768 kb/s.6 channelsolby Digital Plus with Dolby Atmos
    Language : English
    Service kind : Complete Main
    Default : Yes
    Forced : No
    Complexity index : 16
    Number of dynamic objects : 15
    Bed channel count : 1 channel
    Bed channel configuration : LFE

    Audio #2
    ID : 3
    Format : AC-3
    Format/Info : Audio Coding 3
    Commercial name : Dolby Digital
    Codec ID : A_AC3
    Duration : 2 h 6 min
    Bit rate mode : Constant
    Bit rate : 192 kb/s
    Channel(s) : 2 channels
    Channel layout : L R
    Sampling rate : 48.0 kHz
    Frame rate : 31.250 FPS (1536 SPF)
    Compression mode : Lossy
    Stream size : 174 MiB (3%)
    Title : Th.2.0.AC3.192k
    Language : Thai
    Service kind : Complete Main
    Default : Yes
    Forced : No

    Text #1
    ID : 4
    Format : PGS
    Muxing mode : zlib
    Codec ID : S_HDMV/PGS
    Codec ID/Info : Picture based subtitle format used on BDs/HD-DVDs
    Duration : 2 h 5 min
    Bit rate : 29.7 kb/s
    Frame rate : 0.436 FPS
    Count of elements : 3288
    Stream size : 26.7 MiB (0%)
    Title : Th.3.100.90.White
    Language : Thai
    Default : No
    Forced : No

    Text #2
    ID : 5
    Format : PGS
    Muxing mode : zlib
    Codec ID : S_HDMV/PGS
    Codec ID/Info : Picture based subtitle format used on BDs/HD-DVDs
    Duration : 1 h 59 min
    Bit rate : 36.8 kb/s
    Frame rate : 0.445 FPS
    Count of elements : 3178
    Stream size : 31.4 MiB (0%)
    Title : EN.110.3.83.Yellow
    Language : English
    Default : No
    Forced : No

    Text #3
    ID : 6
    Format : PGS
    Muxing mode : zlib
    Codec ID : S_HDMV/PGS
    Codec ID/Info : Picture based subtitle format used on BDs/HD-DVDs
    Duration : 2 h 6 min
    Bit rate : 49.6 kb/s
    Frame rate : 0.702 FPS
    Count of elements : 5316
    Stream size : 44.8 MiB (1%)
    Title : EN.SDH.110.3.83.Pupel
    Language : English
    Default : No
    Forced : No






    Download:filecondo
    Bullet.Train.2022.1080p.WEB.h264.Dolby_Atmos_GOLD_ CUP.mkv
    http://www.filecondo.com/dl.php?f=Be751a1OFdYi
    7.21 GB
    Bullet_Train_(2022)_ระห่ำด่วน_ขบวนนักฆ่า.1080p.WEB [email protected]
    http://www.filecondo.com/dl.php?f=n9aa741OFdWd
    1.86 GB

    Download:cornfile
    ทีมงาน Duckload ขอระงับการอัพไฟล์ใหม่ๆ ขึ้น cornfile ทั้งหมด Click!!

  2. The Following 4 Users Say Thank You to Duckload.us For This Useful Post:

    jackjangri (10-07-2022), Jodz14 (10-04-2022), noi54 (10-05-2022), Wesker_TOT (10-07-2022)

  3. #2
    Junior Member
    สมัครเมื่อ
    Jun 2012
    โพสต์
    4
    Thanks
    0
    Thanked 0 Times in 0 Posts
    รอแบบ 4k ครับผม

  4. #3
    Senior Member
    สมัครเมื่อ
    Dec 2013
    โพสต์
    4,172
    Thanks
    6,072
    Thanked 0 Times in 0 Posts
    ขอบคุณครับ...

  5. #4
    I'm donate !
    สมัครเมื่อ
    Jun 2011
    โพสต์
    568
    Thanks
    717
    Thanked 40 Times in 29 Posts
    ขอบคุณครับ...

  6. #5
    Senior Member
    สมัครเมื่อ
    Jun 2012
    โพสต์
    1,605
    Thanks
    0
    Thanked 1 Time in 1 Post
    ขอบคุณครับ

+ ตอบกลับกระทู้

ข้อมูลกระทู้

Users Browsing this Thread

ในขณะนี้มี 1 ท่านดูกระทู้อยู่. (0 สมาชิกและ 1 ผู้เยี่ยมชม)

     

กฎการโพสต์ข้อความ

  • ท่าน ไม่สามารถ ตั้งกระทู้ใหม่ได้
  • ท่าน ไม่สามารถ ตอบกระทู้ได้
  • ท่าน ไม่สามารถ แนบไฟล์ได้
  • ท่าน ไม่สามารถ แก้ไขข้อความโพสต์ได้
  • BB code สถานะ เปิด
  • Smilies สถานะ เปิด
  • [IMG] สถานะ เปิด
  • HTML สถานะ ปิด