+ ตอบกลับกระทู้
สรุปผลการค้นหา 1 ถึง 4 จากทั้งหมด 4
  1. #1
    Administrators รูปส่วนตัว Duckload.us
    สมัครเมื่อ
    Dec 2010
    โพสต์
    139,867
    Thanks
    7
    Thanked 146,393 Times in 63,688 Posts

    Lightbulb [ฝรั่ง]-[NETFLIX] Mr. Harrigans Phone (2022) โทรศัพท์คนตาย-WEB-DL.EAC-3.Atmos.1080p. [Netflix (web-dl)]-[พากย์อังกฤษ Atmos 5.1 ไทย 5.1 บรรยายไทย (Master)-อังกฤษ]



    มิตรภาพระหว่างเด็กชายและมหาเศรษฐีวัยบั้นปลายเกิดจา กหนังสือและไอโฟนเครื่องแรก แต่เมื่อชายชราจากไป สายสัมพันธ์ของทั้งคู่กลับยังคงไม่ขาดหายไปไหน

    Format : Matroska
    Format version : Version 4
    File size : 4.22 GiB
    Duration : 1 h 46 min
    Overall bit rate : 5 680 kb/s
    Encoded date : UTC 2022-10-05 12:36:23
    Writing application : mkvmerge v55.0.0 ('Waiting For Space') 64-bit
    Writing library : libebml v1.4.2 + libmatroska v1.6.4

    Video
    ID : 1
    Format : AVC
    Format/Info : Advanced Video Codec
    Format profile : [email protected]
    Format settings : CABAC / 3 Ref Frames
    Format settings, CABAC : Yes
    Format settings, Reference : 3 frames
    Codec ID : V_MPEG4/ISO/AVC
    Duration : 1 h 46 min
    Bit rate : 4 207 kb/s
    Width : 1 920 pixels
    Height : 804 pixels
    Display aspect ratio : 2.40:1
    Frame rate mode : Constant
    Frame rate : 24.000 FPS
    Color space : YUV
    Chroma subsampling : 4:2:0
    Bit depth : 8 bits
    Scan type : Progressive
    Bits/(Pixel*Frame) : 0.114
    Stream size : 3.12 GiB (74%)
    Language : English
    Default : Yes
    Forced : No

    Audio #1
    ID : 2
    Format : E-AC-3 JOC
    Format/Info : Enhanced AC-3 with Joint Object Coding
    Commercial name : Dolby Digital Plus with Dolby Atmos
    Codec ID : A_EAC3
    Duration : 1 h 46 min
    Bit rate mode : Constant
    Bit rate : 768 kb/s
    Channel(s) : 6 channels
    Channel layout : L R C LFE Ls Rs
    Sampling rate : 48.0 kHz
    Frame rate : 31.250 FPS (1536 SPF)
    Compression mode : Lossy
    Stream size : 584 MiB (14%)
    Title : E-AC3 Atmos English
    Language : English
    Service kind : Complete Main
    Default : Yes
    Forced : No
    Complexity index : 16
    Number of dynamic objects : 15
    Bed channel count : 1 channel
    Bed channel configuration : LFE

    Audio #2
    ID : 3
    Format : E-AC-3
    Format/Info : Enhanced AC-3
    Commercial name : Dolby Digital Plus
    Codec ID : A_EAC3
    Duration : 1 h 46 min
    Bit rate mode : Constant
    Bit rate : 640 kb/s
    Channel(s) : 6 channels
    Channel layout : L R C LFE Ls Rs
    Sampling rate : 48.0 kHz
    Frame rate : 31.250 FPS (1536 SPF)
    Compression mode : Lossy
    Stream size : 486 MiB (11%)
    Title : E-AC3 Thai
    Language : Thai
    Service kind : Complete Main
    Default : No
    Forced : No

    Text #1
    ID : 4
    Format : VobSub
    Muxing mode : zlib
    Codec ID : S_VOBSUB
    Codec ID/Info : Picture based subtitle format used on DVDs
    Duration : 1 h 44 min
    Bit rate : 11.9 kb/s
    Frame rate : 0.182 FPS
    Count of elements : 1134
    Stream size : 8.84 MiB (0%)
    Title : Sub Thai 1080p
    Language : Thai
    Default : No
    Forced : No

    Text #2
    ID : 5
    Format : UTF-8
    Codec ID : S_TEXT/UTF8
    Codec ID/Info : UTF-8 Plain Text
    Duration : 1 h 44 min
    Bit rate : 126 b/s
    Frame rate : 0.182 FPS
    Count of elements : 1134
    Stream size : 96.7 KiB (0%)
    Title : Sub Thai SRT
    Language : Thai
    Default : No
    Forced : No

    Text #3
    ID : 6
    Format : PGS
    Muxing mode : zlib
    Codec ID : S_HDMV/PGS
    Codec ID/Info : Picture based subtitle format used on BDs/HD-DVDs
    Duration : 1 h 44 min
    Bit rate : 36.1 kb/s
    Frame rate : 0.363 FPS
    Count of elements : 2268
    Stream size : 26.8 MiB (1%)
    Title : Sub Thai PGS
    Language : Thai
    Default : No
    Forced : No

    Text #4
    ID : 7
    Format : PGS
    Muxing mode : zlib
    Codec ID : S_HDMV/PGS
    Codec ID/Info : Picture based subtitle format used on BDs/HD-DVDs
    Duration : 1 h 44 min
    Bit rate : 59.2 kb/s
    Frame rate : 0.363 FPS
    Count of elements : 2268
    Stream size : 44.0 MiB (1%)
    Title : Sub Thai PGS NETFLIX
    Language : Thai
    Default : Yes
    Forced : No

    Text #5
    ID : 8
    Format : UTF-8
    Codec ID : S_TEXT/UTF8
    Codec ID/Info : UTF-8 Plain Text
    Duration : 1 h 36 min
    Bit rate : 55 b/s
    Frame rate : 0.193 FPS
    Count of elements : 1120
    Stream size : 39.4 KiB (0%)
    Title : Sub English SRT
    Language : English
    Default : No
    Forced : No







    Download:filecondo
    2022.Mr.Harrigans.Phone__โทรศัพท์คนตาย.mkv
    http://www.filecondo.com/dl.php?f=Ba600c1OGi7J
    3.28 GB
    Mr.Harrigan's.Phone.2022.1080p.NF.APP-DL.DDP5.1.h264.mkv
    http://www.filecondo.com/dl.php?f=Wfc0411OGpf0
    5.37 GB
    Mr._Harrigan's_Phone_(2022).mkv
    http://www.filecondo.com/dl.php?f=S5907d1OGnw3
    4.53 GB

    Download:cornfile
    ทีมงาน Duckload ขอระงับการอัพไฟล์ใหม่ๆ ขึ้น cornfile ทั้งหมด Click!!

  2. The Following 3 Users Say Thank You to Duckload.us For This Useful Post:

    Jodz14 (10-10-2022), sawara (10-07-2022), Wesker_TOT (10-07-2022)

  3. #2
    Senior Member
    สมัครเมื่อ
    Dec 2013
    โพสต์
    4,172
    Thanks
    6,072
    Thanked 0 Times in 0 Posts
    ขอบคุณครับ...

  4. #3
    Senior Member
    สมัครเมื่อ
    Dec 2013
    โพสต์
    698
    Thanks
    648
    Thanked 0 Times in 0 Posts
    ขอบคุณครับบ

  5. #4
    Senior Member
    สมัครเมื่อ
    Jul 2013
    โพสต์
    3,529
    Thanks
    0
    Thanked 0 Times in 0 Posts
    ขอบคุณครับ

+ ตอบกลับกระทู้

ข้อมูลกระทู้

Users Browsing this Thread

ในขณะนี้มี 1 ท่านดูกระทู้อยู่. (0 สมาชิกและ 1 ผู้เยี่ยมชม)

     

กฎการโพสต์ข้อความ

  • ท่าน ไม่สามารถ ตั้งกระทู้ใหม่ได้
  • ท่าน ไม่สามารถ ตอบกระทู้ได้
  • ท่าน ไม่สามารถ แนบไฟล์ได้
  • ท่าน ไม่สามารถ แก้ไขข้อความโพสต์ได้
  • BB code สถานะ เปิด
  • Smilies สถานะ เปิด
  • [IMG] สถานะ เปิด
  • HTML สถานะ ปิด