+ ตอบกลับกระทู้
สรุปผลการค้นหา 1 ถึง 7 จากทั้งหมด 7
  1. #1
    Administrators รูปส่วนตัว Duckload.us
    สมัครเมื่อ
    Dec 2010
    โพสต์
    141,284
    Thanks
    7
    Thanked 147,955 Times in 64,426 Posts

    Lightbulb [ฝรั่ง]-[AMZN] The Peripheral (2022) ท่องมิติพลิกโลก Season 1 EP.1-8 [เสียง:อังกฤษ-ไทย AC-3 5.1][บรรยาย: ไทย PGS และ ไทย/อังกฤษ SRT]-WEB-DL.H.264.1080p. [From HD-TV]-[พากย์ไทย บรรยายไทย]







    เรื่องย่อของซีรีส์ The Lord of the Rings: The Rings of Power
    สาวน้อยคนหนึ่งติดอยู่ในเมืองเล็กๆ แถวเทือกเขาแอปพาเลเชียน หนีความวุ่นวายในชีวิตประจำวันมาเล่นวิดีโอเกมล้ำยุค เธอเป็นเซียนเกมที่บริษัทส่งวิดีโอเกมรูปแบบใหม่มาให ้เธอทดสอบ แต่ซ่อนเซอร์ไพรส์ไว้ เกมนี้ปลดล็อกความฝันทั้งหลายของเธอในการหาเป้าหมายช ีวิต ความรักและสิ่งล่อใจต่างๆ ในสิ่งที่ดูเหมือนเป็นเกมนี้ แต่มันยังทำให้เธอและครอบครัวเธอตกอยู่ในอันตรายร้าย แรงด้วย


    Video
    ID : 1
    Format : AVC
    Format/Info : Advanced Video Codec
    Format profile : [email protected]
    Format settings, CABAC : Yes
    Format settings, RefFrames : 4 frames
    Codec ID : V_MPEG4/ISO/AVC
    Duration : 1 h 12 min
    Bit rate mode : Constant
    Bit rate : 8 674 kb/s
    Nominal bit rate : 10 000 kb/s
    Width : 1 920 pixels
    Height : 960 pixels
    Display aspect ratio : 2.000
    Frame rate mode : Constant
    Frame rate : 23.976 (24000/1001) FPS
    Color space : YUV
    Chroma subsampling : 4:2:0
    Bit depth : 8 bits
    Scan type : Progressive
    Bits/(Pixel*Frame) : 0.196
    Stream size : 4.41 GiB (96%)
    Default : Yes
    Forced : No
    Color range : Limited
    Color primaries : BT.709
    Transfer characteristics : BT.709
    Matrix coefficients : BT.709

    Audio #1
    ID : 2
    Format : E-AC-3
    Format/Info : Enhanced Audio Coding 3
    Format settings, Endianness : Big
    Codec ID : A_EAC3
    Duration : 1 h 12 min
    Bit rate mode : Constant
    Bit rate : 192 kb/s
    Channel(s) : 6 channels
    Channel positions : Front: L C R, Side: L R, LFE
    Sampling rate : 48.0 kHz
    Frame rate : 187.500 FPS (256 SPF)
    Compression mode : Lossy
    Stream size : 100.0 MiB (2%)
    Title : [Thai-AC-3]
    Language : Thai
    Service kind : Complete Main
    Default : Yes
    Forced : No

    Audio #2
    ID : 3
    Format : E-AC-3
    Format/Info : Enhanced Audio Coding 3
    Format settings, Endianness : Big
    Codec ID : A_EAC3
    Duration : 1 h 12 min
    Bit rate mode : Constant
    Bit rate : 192 kb/s
    Channel(s) : 6 channels
    Channel positions : Front: L C R, Side: L R, LFE
    Sampling rate : 48.0 kHz
    Frame rate : 187.500 FPS (256 SPF)
    Compression mode : Lossy
    Stream size : 100.0 MiB (2%)
    Title : [English-AC-3]
    Language : English
    Service kind : Complete Main
    Default : No
    Forced : No

    Text #1
    ID : 4
    Format : PGS
    Muxing mode : zlib
    Codec ID : S_HDMV/PGS
    Codec ID/Info : Picture based subtitle format used on BDs/HD-DVDs
    Duration : 1 h 6 min
    Bit rate : 712 b/s
    Count of elements : 30
    Stream size : 349 KiB (0%)
    Title : [Thai AMZN Forced PGS]
    Language : Thai
    Default : Yes
    Forced : No

    Text #2
    ID : 5
    Format : PGS
    Muxing mode : zlib
    Codec ID : S_HDMV/PGS
    Codec ID/Info : Picture based subtitle format used on BDs/HD-DVDs
    Duration : 1 h 8 min
    Bit rate : 45.7 kb/s
    Count of elements : 1426
    Stream size : 22.3 MiB (0%)
    Title : [Thai AMZN PGS]
    Language : Thai
    Default : No
    Forced : No

    Text #3
    ID : 6
    Format : UTF-8
    Codec ID : S_TEXT/UTF8
    Codec ID/Info : UTF-8 Plain Text
    Duration : 1 h 6 min
    Bit rate : 1 b/s
    Count of elements : 15
    Stream size : 782 Bytes (0%)
    Title : Thai Forced
    Language : Thai
    Default : No
    Forced : No

    Text #4
    ID : 7
    Format : UTF-8
    Codec ID : S_TEXT/UTF8
    Codec ID/Info : UTF-8 Plain Text
    Duration : 1 h 8 min
    Bit rate : 111 b/s
    Count of elements : 713
    Stream size : 55.9 KiB (0%)
    Title : Thai
    Language : Thai
    Default : No
    Forced : No

    Text #5
    ID : 8
    Format : UTF-8
    Codec ID : S_TEXT/UTF8
    Codec ID/Info : UTF-8 Plain Text
    Duration : 1 h 9 min
    Bit rate : 59 b/s
    Count of elements : 1145
    Stream size : 30.3 KiB (0%)
    Title : English
    Language : English
    Default : No
    Forced : No






    1 http://www.filecondo.com/dl.php?f=K94f4a1OLT8j
    2 http://www.filecondo.com/dl.php?f=l5efae1OLSI5
    3 http://www.filecondo.com/dl.php?f=a657321OPx3A
    4 http://www.filecondo.com/dl.php?f=5a13bb1OTqrW
    5 http://www.filecondo.com/dl.php?f=Y515121OTNv2
    6 http://www.filecondo.com/dl.php?f=s2e4181OX5C5
    7 http://www.filecondo.com/dl.php?f=s44e7b1OZopS
    8 http://www.filecondo.com/dl.php?f=Y244711P1nmu

  2. The Following 6 Users Say Thank You to Duckload.us For This Useful Post:

    jackjangri (10-23-2022), qooland (11-21-2022), sawara (12-12-2022), SiRII (11-01-2022), Wesker_TOT (10-22-2022), whiteherbie (12-30-2022)

  3. #2
    Senior Member
    สมัครเมื่อ
    Dec 2013
    โพสต์
    4,607
    Thanks
    6,505
    Thanked 0 Times in 0 Posts
    ขอบคุณครับ...

  4. #3
    I'm donate !
    สมัครเมื่อ
    Jun 2011
    โพสต์
    574
    Thanks
    723
    Thanked 40 Times in 29 Posts
    ขอบคุณครับ...

  5. #4
    Senior Member
    สมัครเมื่อ
    Jul 2013
    โพสต์
    436
    Thanks
    1,818
    Thanked 0 Times in 0 Posts
    ขอบคุณค่าา ^^

  6. #5
    Junior Member
    สมัครเมื่อ
    Sep 2014
    โพสต์
    8
    Thanks
    2
    Thanked 0 Times in 0 Posts
    ขอบคุณครับ กำลังติดตามทุกตอนเลย

  7. #6
    Member รูปส่วนตัว petpina2010
    สมัครเมื่อ
    Jun 2020
    โพสต์
    53
    Thanks
    13
    Thanked 0 Times in 0 Posts
    ขอบคุณครับ

  8. #7
    Senior Member
    สมัครเมื่อ
    Dec 2011
    โพสต์
    2,939
    Thanks
    484
    Thanked 0 Times in 0 Posts
    ขอบคุณค่ะ

+ ตอบกลับกระทู้

ข้อมูลกระทู้

Users Browsing this Thread

ในขณะนี้มี 1 ท่านดูกระทู้อยู่. (0 สมาชิกและ 1 ผู้เยี่ยมชม)

     

กฎการโพสต์ข้อความ

  • ท่าน ไม่สามารถ ตั้งกระทู้ใหม่ได้
  • ท่าน ไม่สามารถ ตอบกระทู้ได้
  • ท่าน ไม่สามารถ แนบไฟล์ได้
  • ท่าน ไม่สามารถ แก้ไขข้อความโพสต์ได้
  • BB code สถานะ เปิด
  • Smilies สถานะ เปิด
  • [IMG] สถานะ เปิด
  • HTML สถานะ ปิด