+ ตอบกลับกระทู้
สรุปผลการค้นหา 1 ถึง 3 จากทั้งหมด 3
  1. #1
    Administrators รูปส่วนตัว Duckload.us
    สมัครเมื่อ
    Dec 2010
    โพสต์
    139,870
    Thanks
    7
    Thanked 146,393 Times in 63,688 Posts

    Lightbulb [จีน] THE FATE OF REUNION (2022) นางพญางูขาว ภาคอดีตชาติ [พากย์:จีน/ไทย มาสเตอร์][SUB:ไทย/อังกฤษ/จีนฝัง][1080p]



    เมื่อหลายพันปีก่อน จากการกล่อมเกลาของเต้าชิงทำให้นางพญางูขาวเกิดความร ู้แจ้ง ก่อเกิดเป็นการอยากครองรักกับเต้าชิง แต่เพราะความยึดติดของตัวเองที่มีต่อเต้าชิง ทำให้เต้าชิงต้องประสบกับวังวนการตายอย่างทุกข์ทรมาน ไม่จบสิ้น เพื่อแก้ไขอาเพทที่มีต่อเต้าชิง นางพญางูขาวจึงออกตามหาการกลับชาติมาเกิดของเต้ามาหล ายร้อยปี

    Format : Matroska
    Format version : Version 4
    File size : 3.97 GiB
    Duration : 1 h 27 min
    Overall bit rate mode : Variable
    Overall bit rate : 6 452 kb/s
    Movie name : The Fate of Reunion (2022)_©GOLD CUP™_WWW.TT-TORRENT.COM

    Video #1
    ID : 1
    Format : VP9
    Codec ID : V_VP9
    Duration : 1 h 27 min
    Bit rate : 1 012 kb/s
    Width : 1 920 pixels
    Height : 720 pixels
    Display aspect ratio : 2.667
    Frame rate mode : Constant
    Frame rate : 25.000 FPS
    Bits/(Pixel*Frame) : 0.029
    Stream size : 637 MiB (16%)
    Title : The Fate of Reunion (2022).1920X1080P_©GOLD CUP™
    Language : Chinese
    Default : Yes
    Forced : No

    Video #2
    ID : 2
    Format : AVC
    Format/Info : Advanced Video Codec
    Format profile : [email protected]
    Format settings : CABAC / 1 Ref Frames
    Format settings, CABAC : Yes
    Format settings, Reference : 1 frame
    Codec ID : V_MPEG4/ISO/AVC
    Duration : 1 h 27 min
    Bit rate mode : Variable
    Bit rate : 1 929 kb/s
    Maximum bit rate : 6 000 kb/s
    Width : 1 920 pixels
    Height : 1 080 pixels
    Display aspect ratio : 16:9
    Frame rate mode : Constant
    Frame rate : 25.000 FPS
    Color space : YUV
    Chroma subsampling : 4:2:0
    Bit depth : 8 bits
    Scan type : Progressive
    Bits/(Pixel*Frame) : 0.037
    Stream size : 1.19 GiB (30%)
    Title : Chi.AAC.2.0_190 kbs
    Language : Thai
    Default : Yes
    Forced : No

    Audio #1
    ID : 3
    Format : Opus
    Codec ID : A_OPUS
    Duration : 1 h 27 min
    Bit rate : 190 kb/s
    Channel(s) : 2 channels
    Channel layout : L R
    Sampling rate : 48.0 kHz
    Frame rate : 50.000 FPS (960 SPF)
    Bit depth : 16 bits
    Compression mode : Lossy
    Stream size : 119 MiB (3%)
    Title : The Fate of Reunion (2022).1920X720P_©GOLD CUP™
    Language : Chinese
    Default : Yes
    Forced : No

    Audio #2
    ID : 4
    Format : AAC LC
    Format/Info : Advanced Audio Codec Low Complexity
    Codec ID : A_AAC-2
    Duration : 1 h 27 min
    Bit rate : 128 kb/s
    Channel(s) : 2 channels
    Channel layout : L R
    Sampling rate : 44.1 kHz
    Frame rate : 43.066 FPS (1024 SPF)
    Compression mode : Lossy
    Stream size : 80.6 MiB (2%)
    Title : Th.AAC.2.0_192 kbs
    Language : Thai
    Default : Yes
    Forced : No

    Audio #3
    ID : 5
    Format : DTS
    Format/Info : Digital Theater Systems
    Codec ID : A_DTS
    Duration : 118 ms
    Bit rate mode : Constant
    Bit rate : 142 Gb/s
    Channel(s) : 2 channels
    Channel layout : L R
    Sampling rate : 96.0 kHz
    Frame rate : 93.750 FPS (1024 SPF)
    Bit depth : 16 bits
    Compression mode : Lossy
    Stream size : 1.95 GiB (49%)
    Title : Chi.DTS.5.1_Sample Rate 96000
    Language : Chinese
    Default : Yes
    Forced : No

    Text
    ID : 6
    Format : PGS
    Muxing mode : zlib
    Codec ID : S_HDMV/PGS
    Codec ID/Info : Picture based subtitle format used on BDs/HD-DVDs
    Duration : 1 h 23 min
    Bit rate : 21.1 kb/s
    Frame rate : 0.296 FPS
    Count of elements : 1482
    Stream size : 12.6 MiB (0%)
    Title : EN.110.3.83.Yellow
    Language : English
    Default : No
    Forced : No





    นางพญางูขาว_ภาคอดีตชาติ.mp4
    http://www.filecondo.com/dl.php?f=qd81651OUyGN
    5.87 GB

  2. The Following 3 Users Say Thank You to Duckload.us For This Useful Post:

    Jodz14 (11-15-2022), noi54 (11-24-2022), whiteherbie (11-17-2022)

  3. #2
    Senior Member
    สมัครเมื่อ
    Oct 2013
    โพสต์
    2,264
    Thanks
    0
    Thanked 0 Times in 0 Posts
    ขอบคุณครับ

  4. #3
    Senior Member
    สมัครเมื่อ
    Dec 2011
    โพสต์
    2,902
    Thanks
    451
    Thanked 0 Times in 0 Posts
    ลองเปิดดูแล้ว เป็นพากษ์ไทยอย่างเดียว ไม่มีซับไทย นะคะ

+ ตอบกลับกระทู้

ข้อมูลกระทู้

Users Browsing this Thread

ในขณะนี้มี 1 ท่านดูกระทู้อยู่. (0 สมาชิกและ 1 ผู้เยี่ยมชม)

     

กฎการโพสต์ข้อความ

  • ท่าน ไม่สามารถ ตั้งกระทู้ใหม่ได้
  • ท่าน ไม่สามารถ ตอบกระทู้ได้
  • ท่าน ไม่สามารถ แนบไฟล์ได้
  • ท่าน ไม่สามารถ แก้ไขข้อความโพสต์ได้
  • BB code สถานะ เปิด
  • Smilies สถานะ เปิด
  • [IMG] สถานะ เปิด
  • HTML สถานะ ปิด