+ ͺѺз
ػšä 1 ֧ 1 ҡ 1
  1. #1
    Administrators ٻǹ Duckload.us
    Ѥ
    Dec 2010
    ʵ
    139,861
    Thanks
    7
    Thanked 146,393 Times in 63,688 Posts

    Lightbulb [] PROJECT WOLF HUNTING (2022) ͤഹ [ҡ:Korean/Thai Rong][SUB:ѧ][1080p]



    ˹ѧ礪ش˴ͤ觷ѧ´ Ѻʶҹóشз֡ѧҡʹԹⴹԴȹ ԸǷТ觹ѡءèҡйҡѺ §ҧҹ Ҫҡഹ 47 ԵͧԹҧͿ͹䷷ѹ зҧ 1,630 ҧʹԵͧҪҡ÷ͧ Ҿҧǡѹ͡ˡءԴ¡ҧ ź˹ ༪ԭ˹ҡѺͻҺ˹觷Ժѵԡ ó캹ͤ˹ͼ׹㹤駹 顮 ҧ˹ ҧǤ ʹ

    Format : Matroska
    Format version : Version 4
    File size : 4.31 GiB
    Duration : 2 h 2 min
    Overall bit rate : 5 054 kb/s
    Movie name : Project Wolf Hunting 2022 1080p Korean HDRip_©GOLD CUP™_WWW.TT-TORRENT.COM

    Video
    ID : 1
    Format : AVC
    Format/Info : Advanced Video Codec
    Format profile : [email protected]
    Format settings : CABAC / 1 Ref Frames
    Format settings, CABAC : Yes
    Format settings, Reference : 1 frame
    Format settings, GOP : M=1, N=25
    Codec ID : V_MPEG4/ISO/AVC
    Duration : 2 h 2 min
    Bit rate mode : Constant
    Bit rate : 4 653 kb/s
    Width : 1 920 pixels
    Height : 804 pixels
    Display aspect ratio : 2.40:1
    Frame rate mode : Constant
    Frame rate : 23.976 (24000/1001) FPS
    Color space : YUV
    Chroma subsampling : 4:2:0
    Bit depth : 8 bits
    Scan type : Progressive
    Bits/(Pixel*Frame) : 0.126
    Stream size : 3.97 GiB (92%)
    Title : Project Wolf Hunting 2022 1080p Korean HDRip_©GOLD CUP™
    Language : Korean
    Default : Yes
    Forced : No

    Audio #1
    ID : 2
    Format : AC-3
    Format/Info : Audio Coding 3
    Commercial name : Dolby Digital
    Codec ID : A_AC3
    Duration : 2 h 2 min
    Bit rate mode : Constant
    Bit rate : 192 kb/s
    Channel(s) : 2 channels
    Channel layout : L R
    Sampling rate : 48.0 kHz
    Frame rate : 31.250 FPS (1536 SPF)
    Compression mode : Lossy
    Stream size : 168 MiB (4%)
    Title : Th.2.0.AC3.192k
    Language : Thai
    Service kind : Complete Main
    Default : Yes
    Forced : No

    Audio #2
    ID : 3
    Format : AAC LC
    Format/Info : Advanced Audio Codec Low Complexity
    Codec ID : A_AAC-2
    Duration : 2 h 2 min
    Bit rate : 192 kb/s
    Channel(s) : 2 channels
    Channel layout : L R
    Sampling rate : 44.1 kHz
    Frame rate : 43.066 FPS (1024 SPF)
    Compression mode : Lossy
    Stream size : 171 MiB (4%)
    Title : Kor.AAC.2.0_192 kbs
    Language : Korean
    Default : Yes
    Forced : No

    Text
    ID : 4
    Format : PGS
    Muxing mode : zlib
    Codec ID : S_HDMV/PGS
    Codec ID/Info : Picture based subtitle format used on BDs/HD-DVDs
    Duration : 1 h 53 min
    Bit rate : 21.5 kb/s
    Frame rate : 0.267 FPS
    Count of elements : 1818
    Stream size : 17.5 MiB (0%)
    Title : EN.110.3.83.Yellow
    Language : English
    Default : No
    Forced : No





    Project_Wolf_Hunting_2022_1080p_Korean_HDRip_GOLD_ CUP.mkv
    http://www.filecondo.com/dl.php?f=f3aeec1OTyW6
    4.63 GB

  2. The Following User Says Thank You to Duckload.us For This Useful Post:

    masaomi (11-17-2022)

+ ͺѺз

šз

Users Browsing this Thread

㹢й 1 ҹ١з. (0 Ҫԡ 1 )

     

ʵͤ

  • ҹ ö 駡з
  • ҹ ö ͺз
  • ҹ ö
  • ҹ ö 䢢ͤʵ