+ ตอบกลับกระทู้
สรุปผลการค้นหา 1 ถึง 1 จากทั้งหมด 1
  1. #1
    Administrators รูปส่วนตัว Duckload.us
    สมัครเมื่อ
    Dec 2010
    โพสต์
    139,861
    Thanks
    7
    Thanked 146,393 Times in 63,688 Posts

    Lightbulb [ฝรั่ง]-Black Panther Wakanda Forever (2022) แบล็ค แพนเธอร์ วาคานด้าจงเจริญ ชัดสุดในตอนนี้[เสียง:อังกฤษ-ไทยโรง]-WEB-DL.H.264.720p. [หนังซูม]-[พากย์ไทยโรง] 







    เรื่องย่อ Black Panther Wakanda Forever
    ราชินีรามอนด้า (แองเจลา บาสเซตต์) ชูรี (เลทิเทีย ไรท์) เอ็มบาคู (วินสตัน ดุ๊ก) โอโคเย (ดาไน กูริรา) และ โดรา มิลาเจ (รวมไปถึง ฟลอเรนซ์ คาซัมบา) จะต้องร่วมต่อสู้เพื่อปกป้องประเทศของพวกเขาจากการแท รกแซงทางอำนาจหลังการสวรรคตของกษัตริย์ทีชัลล่าในระห ว่างที่ชาววาคานด้าพยายามอย่างหนักเพื่อที่จะก้าวต่อ ไป เหล่าฮีโร่จึงต้องร่วมมือกัน ด้วยความช่วยเหลือของวอร์ด็อกนาเคีย (ลูพีตา ญองอ) และ เอเวอเร็ตต์ รอสส์ (มาร์ติน ฟรีแมน) ในการสร้างเส้นทางใหม่ให้กับวานคานด้า


    Video
    ID : 1
    Format : AVC
    Format/Info : Advanced Video Codec
    Format profile : [email protected]
    Format settings, CABAC : Yes
    Format settings, RefFrames : 4 frames
    Codec ID : V_MPEG4/ISO/AVC
    Duration : 2 h 33 min
    Bit rate : 3 438 kb/s
    Width : 1 280 pixels
    Height : 544 pixels
    Display aspect ratio : 2.35:1
    Frame rate mode : Constant
    Frame rate : 24.000 FPS
    Color space : YUV
    Chroma subsampling : 4:2:0
    Bit depth : 8 bits
    Scan type : Progressive
    Bits/(Pixel*Frame) : 0.206
    Stream size : 3.70 GiB (84%)
    Writing library : x264 core 157 r2969 d4099dd
    Encoding settings : cabac=1 / ref=3 / deblock=1:0:0 / analyse=0x3:0x113 / me=hex / subme=7 / psy=1 / psy_rd=1.00:0.00 / mixed_ref=1 / me_range=16 / chroma_me=1 / trellis=1 / 8x8dct=1 / cqm=0 / deadzone=21,11 / fast_pskip=1 / chroma_qp_offset=-2 / threads=17 / lookahead_threads=2 / sliced_threads=0 / nr=0 / decimate=1 / interlaced=0 / bluray_compat=0 / constrained_intra=0 / bframes=3 / b_pyramid=2 / b_adapt=1 / b_bias=0 / direct=1 / weightb=1 / open_gop=0 / weightp=2 / keyint=240 / keyint_min=24 / scenecut=40 / intra_refresh=0 / rc_lookahead=40 / rc=crf / mbtree=1 / crf=13.0 / qcomp=0.60 / qpmin=0 / qpmax=69 / qpstep=4 / ip_ratio=1.40 / aq=1:1.00
    Default : Yes
    Forced : No

    Audio #1
    ID : 2
    Format : AC-3
    Format/Info : Audio Coding 3
    Format settings, Endianness : Big
    Codec ID : A_AC3
    Duration : 2 h 33 min
    Bit rate mode : Constant
    Bit rate : 320 kb/s
    Channel(s) : 2 channels
    Channel positions : Front: L R
    Sampling rate : 48.0 kHz
    Frame rate : 31.250 FPS (1536 SPF)
    Bit depth : 16 bits
    Compression mode : Lossy
    Stream size : 352 MiB (8%)
    Title : ThaiRong
    Language : Thai
    Service kind : Complete Main
    Default : Yes
    Forced : No

    Audio #2
    ID : 3
    Format : AC-3
    Format/Info : Audio Coding 3
    Format settings, Endianness : Big
    Codec ID : A_AC3
    Duration : 2 h 33 min
    Bit rate mode : Constant
    Bit rate : 320 kb/s
    Channel(s) : 2 channels
    Channel positions : Front: L R
    Sampling rate : 48.0 kHz
    Frame rate : 31.250 FPS (1536 SPF)
    Bit depth : 16 bits
    Compression mode : Lossy
    Stream size : 352 MiB (8%)
    Title : English
    Language : English
    Service kind : Complete Main
    Default : No
    Forced : No


    เสียงไทยจากคุณ atit604




    Black_Panther_Wakanda_Forever_(2022)_แบล็ค_แพนเธอร ์_วาคานด้าจงเจริญ.720p_Modified_By_mxn.mkv
    http://www.filecondo.com/dl.php?f=R2b84c1OVBYQ
    4.71 GB

    Black_Panther_Wakanda_Forever_(2022).mp4
    http://www.filecondo.com/dl.php?f=Q535581OURe0
    2.85 GB

  2. The Following 2 Users Say Thank You to Duckload.us For This Useful Post:

    masaomi (11-17-2022), santanmoon (11-18-2022)

+ ตอบกลับกระทู้

ข้อมูลกระทู้

Users Browsing this Thread

ในขณะนี้มี 1 ท่านดูกระทู้อยู่. (0 สมาชิกและ 1 ผู้เยี่ยมชม)

     

กฎการโพสต์ข้อความ

  • ท่าน ไม่สามารถ ตั้งกระทู้ใหม่ได้
  • ท่าน ไม่สามารถ ตอบกระทู้ได้
  • ท่าน ไม่สามารถ แนบไฟล์ได้
  • ท่าน ไม่สามารถ แก้ไขข้อความโพสต์ได้
  • BB code สถานะ เปิด
  • Smilies สถานะ เปิด
  • [IMG] สถานะ เปิด
  • HTML สถานะ ปิด