+ ตอบกลับกระทู้
สรุปผลการค้นหา 1 ถึง 1 จากทั้งหมด 1
  1. #1
    Administrators รูปส่วนตัว Duckload.us
    สมัครเมื่อ
    Dec 2010
    โพสต์
    139,862
    Thanks
    7
    Thanked 146,393 Times in 63,688 Posts

    Lightbulb [ฝรั่ง]-Black Adam (2022) แบล็ก อดัม-WEB-DL.EAC-3.Atmos.1080p. [Modified]-[พากย์อังกฤษ Atmos 5.1 บรรยายไทย (Master)-อังกฤษ]




    เกือบ 5,000 ปีแล้วที่เขาได้รับสุดยอดพลังจากเทพเจ้าโบราณแล้วถูก คุมขังตัวเอาไว้ทันที ในที่สุด แบล็ก อดัม ก็ถูกปลดปล่อยจากสุสานของเขา แล้วพร้อมที่จะระเบิดมหาอำนาจแห่งความยุติธรรมของตนบ นโลกมนุษย์!


    Format : Matroska
    Format version : Version 4
    File size : 4.31 GiB
    Duration : 2 h 4 min
    Overall bit rate : 4 937 kb/s
    Encoded date : UTC 2022-11-23 13:32:42
    Writing application : mkvmerge v55.0.0 ('Waiting For Space') 64-bit
    Writing library : libebml v1.4.2 + libmatroska v1.6.4

    Video
    ID : 1
    Format : AVC
    Format/Info : Advanced Video Codec
    Format profile : [email protected]
    Format settings : CABAC / 3 Ref Frames
    Format settings, CABAC : Yes
    Format settings, Reference : 3 frames
    Codec ID : V_MPEG4/ISO/AVC
    Duration : 2 h 4 min
    Bit rate : 4 149 kb/s
    Width : 1 920 pixels
    Height : 804 pixels
    Display aspect ratio : 2.40:1
    Frame rate mode : Constant
    Frame rate : 23.976 (24000/1001) FPS
    Color space : YUV
    Chroma subsampling : 4:2:0
    Bit depth : 8 bits
    Scan type : Progressive
    Bits/(Pixel*Frame) : 0.112
    Stream size : 3.62 GiB (84%)
    Language : English
    Default : Yes
    Forced : No
    Color range : Limited
    Color primaries : BT.709
    Transfer characteristics : BT.709
    Matrix coefficients : BT.709

    Audio
    ID : 2
    Format : E-AC-3 JOC
    Format/Info : Enhanced AC-3 with Joint Object Coding
    Commercial name : Dolby Digital Plus with Dolby Atmos
    Codec ID : A_EAC3
    Duration : 2 h 4 min
    Bit rate mode : Constant
    Bit rate : 768 kb/s
    Channel(s) : 6 channels
    Channel layout : L R C LFE Ls Rs
    Sampling rate : 48.0 kHz
    Frame rate : 31.250 FPS (1536 SPF)
    Compression mode : Lossy
    Delay relative to video : 83 ms
    Stream size : 686 MiB (16%)
    Title : E-AC3 Atmos English
    Language : English
    Service kind : Complete Main
    Default : Yes
    Forced : No
    Complexity index : 16
    Number of dynamic objects : 15
    Bed channel count : 1 channel
    Bed channel configuration : LFE

    Text #1
    ID : 3
    Format : VobSub
    Muxing mode : zlib
    Codec ID : S_VOBSUB
    Codec ID/Info : Picture based subtitle format used on DVDs
    Duration : 2 h 3 min
    Bit rate : 8 837 b/s
    Frame rate : 0.170 FPS
    Count of elements : 1264
    Stream size : 7.81 MiB (0%)
    Title : Sub Thai 1080p
    Language : Thai
    Default : No
    Forced : No

    Text #2
    ID : 4
    Format : UTF-8
    Codec ID : S_TEXT/UTF8
    Codec ID/Info : UTF-8 Plain Text
    Duration : 2 h 3 min
    Bit rate : 91 b/s
    Frame rate : 0.170 FPS
    Count of elements : 1264
    Stream size : 82.4 KiB (0%)
    Title : Sub Thai SRT
    Language : Thai
    Default : No
    Forced : No

    Text #3
    ID : 5
    Format : PGS
    Muxing mode : zlib
    Codec ID : S_HDMV/PGS
    Codec ID/Info : Picture based subtitle format used on BDs/HD-DVDs
    Duration : 2 h 3 min
    Bit rate : 27.5 kb/s
    Frame rate : 0.341 FPS
    Count of elements : 2528
    Stream size : 24.3 MiB (1%)
    Title : Sub Thai PGS
    Language : Thai
    Default : Yes
    Forced : No

    Text #4
    ID : 6
    Format : UTF-8
    Codec ID : S_TEXT/UTF8
    Codec ID/Info : UTF-8 Plain Text
    Duration : 1 h 56 min
    Bit rate : 47 b/s
    Frame rate : 0.194 FPS
    Count of elements : 1357
    Stream size : 40.4 KiB (0%)
    Title : Sub English SRT
    Language : English
    Default : No
    Forced : No

    Menu
    00:00:00.000 : en:Chapter 01
    00:10:22.000 : en:Chapter 02
    00:19:56.000 : en:Chapter 03
    00:29:28.000 : en:Chapter 04
    00:38:32.000 : en:Chapter 05
    00:50:39.000 : en:Chapter 06
    01:00:17.000 : en:Chapter 07
    01:09:40.000 : en:Chapter 08
    01:19:31.000 : en:Chapter 09
    01:29:06.000 : en:Chapter 10
    01:40:14.000 : en:Chapter 11
    01:49:34.000 : en:Chapter 12
    01:53:06.000 : en:Chapter 13






    Black_Adam_(2022).mkv
    http://www.filecondo.com/dl.php?f=241efd1OY45N
    4.62 GB

    Black.Adam.2022.1080p.MA.WEBRip.DDP5.1.Atmos.x264-SMURF.mkv
    http://www.filecondo.com/dl.php?f=v762c11OY4xI
    8.11 GB

  2. The Following User Says Thank You to Duckload.us For This Useful Post:

    noi54 (11-24-2022)

+ ตอบกลับกระทู้

ข้อมูลกระทู้

Users Browsing this Thread

ในขณะนี้มี 1 ท่านดูกระทู้อยู่. (0 สมาชิกและ 1 ผู้เยี่ยมชม)

     

กฎการโพสต์ข้อความ

  • ท่าน ไม่สามารถ ตั้งกระทู้ใหม่ได้
  • ท่าน ไม่สามารถ ตอบกระทู้ได้
  • ท่าน ไม่สามารถ แนบไฟล์ได้
  • ท่าน ไม่สามารถ แก้ไขข้อความโพสต์ได้
  • BB code สถานะ เปิด
  • Smilies สถานะ เปิด
  • [IMG] สถานะ เปิด
  • HTML สถานะ ปิด