+ ตอบกลับกระทู้
สรุปผลการค้นหา 1 ถึง 1 จากทั้งหมด 1
  1. #1
    Administrators รูปส่วนตัว Duckload.us
    สมัครเมื่อ
    Dec 2010
    โพสต์
    139,885
    Thanks
    7
    Thanked 146,393 Times in 63,688 Posts

    Lightbulb [ฝรั่ง]-[NETFLIX] The Wonder (2022) เดอะ วันเดอร์-WEB-DL.EAC-3.Atmos.1080p. [Netflix (web-dl)]-[พากย์อังกฤษ Atmos 5.1 ไทย 5.1 บรรยายไทย (Master)]




    พยาบาลที่ถูกอดีตตามหลอกหลอนเดินทางจากอังกฤษไปยังหม ู่บ้านห่างไกลในไอร์แลนด์ในปี 1862 เพื่อสืบเรื่องราวการอดอาหารที่น่ามหัศจรรย์ของเด็กห ญิงคนหนึ่ง



    Format : Matroska
    Format version : Version 4
    File size : 4.30 GiB
    Duration : 1 h 49 min
    Overall bit rate : 5 607 kb/s
    Encoded date : UTC 2022-11-16 14:05:00
    Writing application : mkvmerge v55.0.0 ('Waiting For Space') 64-bit
    Writing library : libebml v1.4.2 + libmatroska v1.6.4

    Video
    ID : 1
    Format : AVC
    Format/Info : Advanced Video Codec
    Format profile : [email protected]
    Format settings : CABAC / 3 Ref Frames
    Format settings, CABAC : Yes
    Format settings, Reference : 3 frames
    Codec ID : V_MPEG4/ISO/AVC
    Duration : 1 h 49 min
    Bit rate : 4 157 kb/s
    Width : 1 920 pixels
    Height : 800 pixels
    Display aspect ratio : 2.40:1
    Frame rate mode : Constant
    Frame rate : 24.000 FPS
    Color space : YUV
    Chroma subsampling : 4:2:0
    Bit depth : 8 bits
    Scan type : Progressive
    Bits/(Pixel*Frame) : 0.113
    Stream size : 3.18 GiB (74%)
    Language : English
    Default : Yes
    Forced : No

    Audio #1
    ID : 2
    Format : E-AC-3 JOC
    Format/Info : Enhanced AC-3 with Joint Object Coding
    Commercial name : Dolby Digital Plus with Dolby Atmos
    Codec ID : A_EAC3
    Duration : 1 h 49 min
    Bit rate mode : Constant
    Bit rate : 768 kb/s
    Channel(s) : 6 channels
    Channel layout : L R C LFE Ls Rs
    Sampling rate : 48.0 kHz
    Frame rate : 31.250 FPS (1536 SPF)
    Compression mode : Lossy
    Stream size : 603 MiB (14%)
    Title : E-AC3 Atmos English
    Language : English
    Service kind : Complete Main
    Default : Yes
    Forced : No
    Complexity index : 16
    Number of dynamic objects : 15
    Bed channel count : 1 channel
    Bed channel configuration : LFE

    Audio #2
    ID : 3
    Format : E-AC-3
    Format/Info : Enhanced AC-3
    Commercial name : Dolby Digital Plus
    Codec ID : A_EAC3
    Duration : 1 h 49 min
    Bit rate mode : Constant
    Bit rate : 640 kb/s
    Channel(s) : 6 channels
    Channel layout : L R C LFE Ls Rs
    Sampling rate : 48.0 kHz
    Frame rate : 31.250 FPS (1536 SPF)
    Compression mode : Lossy
    Stream size : 502 MiB (11%)
    Title : E-AC3 Thai
    Language : Thai
    Service kind : Complete Main
    Default : No
    Forced : No

    Text #1
    ID : 4
    Format : VobSub
    Muxing mode : zlib
    Codec ID : S_VOBSUB
    Codec ID/Info : Picture based subtitle format used on DVDs
    Duration : 1 h 47 min
    Bit rate : 7 701 b/s
    Frame rate : 0.152 FPS
    Count of elements : 974
    Stream size : 5.90 MiB (0%)
    Title : Sub Thai 1080p
    Language : Thai
    Default : No
    Forced : No

    Text #2
    ID : 5
    Format : UTF-8
    Codec ID : S_TEXT/UTF8
    Codec ID/Info : UTF-8 Plain Text
    Duration : 1 h 47 min
    Bit rate : 78 b/s
    Frame rate : 0.152 FPS
    Count of elements : 974
    Stream size : 61.3 KiB (0%)
    Title : Sub Thai SRT
    Language : Thai
    Default : No
    Forced : No

    Text #3
    ID : 6
    Format : PGS
    Muxing mode : zlib
    Codec ID : S_HDMV/PGS
    Codec ID/Info : Picture based subtitle format used on BDs/HD-DVDs
    Duration : 1 h 47 min
    Bit rate : 23.9 kb/s
    Frame rate : 0.303 FPS
    Count of elements : 1948
    Stream size : 18.3 MiB (0%)
    Title : Sub Thai PGS
    Language : Thai
    Default : No
    Forced : No

    Text #4
    ID : 7
    Format : PGS
    Muxing mode : zlib
    Codec ID : S_HDMV/PGS
    Codec ID/Info : Picture based subtitle format used on BDs/HD-DVDs
    Duration : 1 h 47 min
    Bit rate : 38.4 kb/s
    Frame rate : 0.303 FPS
    Count of elements : 1948
    Stream size : 29.4 MiB (1%)
    Title : Sub Thai PGS NETFLIX
    Language : Thai
    Default : Yes
    Forced : No

    Text #5
    ID : 8
    Format : UTF-8
    Codec ID : S_TEXT/UTF8
    Codec ID/Info : UTF-8 Plain Text
    Duration : 1 h 47 min
    Bit rate : 0 b/s
    Frame rate : 0.000 FPS
    Count of elements : 2
    Stream size : 119 Bytes (0%)
    Title : Sub Thai Forced
    Language : Thai
    Default : No
    Forced : Yes

    Text #6
    ID : 9
    Format : UTF-8
    Codec ID : S_TEXT/UTF8
    Codec ID/Info : UTF-8 Plain Text
    Duration : 1 h 42 min
    Bit rate : 47 b/s
    Frame rate : 0.209 FPS
    Count of elements : 1279
    Stream size : 35.7 KiB (0%)
    Title : Sub English SRT
    Language : English
    Default : No
    Forced : No






    The_Wonder_(2022).mkv
    http://www.filecondo.com/dl.php?f=L9c5751OVQJT

    4.61 GB

  2. The Following User Says Thank You to Duckload.us For This Useful Post:

    Jodz14 (11-24-2022)

+ ตอบกลับกระทู้

ข้อมูลกระทู้

Users Browsing this Thread

ในขณะนี้มี 1 ท่านดูกระทู้อยู่. (0 สมาชิกและ 1 ผู้เยี่ยมชม)

     

กฎการโพสต์ข้อความ

  • ท่าน ไม่สามารถ ตั้งกระทู้ใหม่ได้
  • ท่าน ไม่สามารถ ตอบกระทู้ได้
  • ท่าน ไม่สามารถ แนบไฟล์ได้
  • ท่าน ไม่สามารถ แก้ไขข้อความโพสต์ได้
  • BB code สถานะ เปิด
  • Smilies สถานะ เปิด
  • [IMG] สถานะ เปิด
  • HTML สถานะ ปิด