+ ตอบกลับกระทู้
สรุปผลการค้นหา 1 ถึง 1 จากทั้งหมด 1
  1. #1
    Administrators รูปส่วนตัว Duckload.us
    สมัครเมื่อ
    Dec 2010
    โพสต์
    139,866
    Thanks
    7
    Thanked 146,393 Times in 63,688 Posts

    Lightbulb [ญี่ปุ่น]-[NETFLIX] The Violence Action (2022) สาวน้อยนักฆ่า-WEB-DL.EAC-3.1080p. [Netflix (web-dl)]-[พากย์ญี่ปุ่น 5.1 บรรยายไทย (Master)-อังกฤษ]



    ตอนกลางวันเธอเป็นนักศึกษาสาวแบ๊วๆ คนหนึ่ง แต่พอตกกลางคืน เธอทำงานพิเศษเป็นนักฆ่า แล้วเธอก็กำลังจะเผชิญหน้ากับเป้าหมายที่โหดหินที่สุ ดเท่าที่เคยเจอมา



    Format : Matroska
    Format version : Version 4
    File size : 4.37 GiB
    Duration : 1 h 51 min
    Overall bit rate : 5 616 kb/s
    Encoded date : UTC 2022-11-18 14:36:09
    Writing application : mkvmerge v55.0.0 ('Waiting For Space') 64-bit
    Writing library : libebml v1.4.2 + libmatroska v1.6.4

    Video
    ID : 1
    Format : AVC
    Format/Info : Advanced Video Codec
    Format profile : [email protected]
    Format settings : CABAC / 3 Ref Frames
    Format settings, CABAC : Yes
    Format settings, Reference : 3 frames
    Codec ID : V_MPEG4/ISO/AVC
    Duration : 1 h 51 min
    Bit rate : 4 933 kb/s
    Width : 1 920 pixels
    Height : 1 036 pixels
    Display aspect ratio : 1.85:1
    Frame rate mode : Constant
    Frame rate : 23.976 (24000/1001) FPS
    Color space : YUV
    Chroma subsampling : 4:2:0
    Bit depth : 8 bits
    Scan type : Progressive
    Bits/(Pixel*Frame) : 0.103
    Stream size : 3.84 GiB (88%)
    Language : Japanese
    Default : Yes
    Forced : No

    Audio
    ID : 2
    Format : E-AC-3
    Format/Info : Enhanced AC-3
    Commercial name : Dolby Digital Plus
    Codec ID : A_EAC3
    Duration : 1 h 51 min
    Bit rate mode : Constant
    Bit rate : 640 kb/s
    Channel(s) : 6 channels
    Channel layout : L R C LFE Ls Rs
    Sampling rate : 48.0 kHz
    Frame rate : 31.250 FPS (1536 SPF)
    Compression mode : Lossy
    Stream size : 510 MiB (11%)
    Title : E-AC3 Japanese
    Language : Japanese
    Service kind : Complete Main
    Default : Yes
    Forced : No

    Text #1
    ID : 3
    Format : VobSub
    Muxing mode : zlib
    Codec ID : S_VOBSUB
    Codec ID/Info : Picture based subtitle format used on DVDs
    Duration : 1 h 51 min
    Bit rate : 7 594 b/s
    Frame rate : 0.166 FPS
    Count of elements : 1104
    Stream size : 6.04 MiB (0%)
    Title : Sub Thai 1080p
    Language : Thai
    Default : No
    Forced : No

    Text #2
    ID : 4
    Format : UTF-8
    Codec ID : S_TEXT/UTF8
    Codec ID/Info : UTF-8 Plain Text
    Duration : 1 h 51 min
    Bit rate : 78 b/s
    Frame rate : 0.166 FPS
    Count of elements : 1104
    Stream size : 63.5 KiB (0%)
    Title : Sub Thai SRT
    Language : Thai
    Default : No
    Forced : No

    Text #3
    ID : 5
    Format : PGS
    Muxing mode : zlib
    Codec ID : S_HDMV/PGS
    Codec ID/Info : Picture based subtitle format used on BDs/HD-DVDs
    Duration : 1 h 51 min
    Bit rate : 23.9 kb/s
    Frame rate : 0.331 FPS
    Count of elements : 2208
    Stream size : 19.0 MiB (0%)
    Title : Sub Thai PGS
    Language : Thai
    Default : No
    Forced : No

    Text #4
    ID : 6
    Format : PGS
    Muxing mode : zlib
    Codec ID : S_HDMV/PGS
    Codec ID/Info : Picture based subtitle format used on BDs/HD-DVDs
    Duration : 1 h 51 min
    Bit rate : 38.4 kb/s
    Frame rate : 0.331 FPS
    Count of elements : 2208
    Stream size : 30.5 MiB (1%)
    Title : Sub Thai PGS NETFLIX
    Language : Thai
    Default : Yes
    Forced : No

    Text #5
    ID : 7
    Format : UTF-8
    Codec ID : S_TEXT/UTF8
    Codec ID/Info : UTF-8 Plain Text
    Duration : 1 h 50 min
    Bit rate : 30 b/s
    Frame rate : 0.163 FPS
    Count of elements : 1081
    Stream size : 24.9 KiB (0%)
    Title : Sub English SRT
    Language : English
    Default : No
    Forced : No







    The_Violence_Action_(2022).mkv
    http://www.filecondo.com/dl.php?f=T127b11OXcUl
    4.69 GB
    The.Violence.Action.2022.DDP5.1.mkv
    http://www.filecondo.com/dl.php?f=9623a51OXdlZ
    4.26 GB
    The.Violence.Action.2022.1080p.NF.APP-DL.JAPANESE.DDP5.1.H264.mkv
    http://www.filecondo.com/dl.php?f=Y7854e1OXdbF
    7.1 GB

  2. The Following User Says Thank You to Duckload.us For This Useful Post:

    Jodz14 (11-30-2022)

+ ตอบกลับกระทู้

ข้อมูลกระทู้

Users Browsing this Thread

ในขณะนี้มี 1 ท่านดูกระทู้อยู่. (0 สมาชิกและ 1 ผู้เยี่ยมชม)

     

กฎการโพสต์ข้อความ

  • ท่าน ไม่สามารถ ตั้งกระทู้ใหม่ได้
  • ท่าน ไม่สามารถ ตอบกระทู้ได้
  • ท่าน ไม่สามารถ แนบไฟล์ได้
  • ท่าน ไม่สามารถ แก้ไขข้อความโพสต์ได้
  • BB code สถานะ เปิด
  • Smilies สถานะ เปิด
  • [IMG] สถานะ เปิด
  • HTML สถานะ ปิด