+ ตอบกลับกระทู้
สรุปผลการค้นหา 1 ถึง 1 จากทั้งหมด 1
  1. #1
    Administrators รูปส่วนตัว Duckload.us
    สมัครเมื่อ
    Dec 2010
    โพสต์
    139,885
    Thanks
    7
    Thanked 146,393 Times in 63,688 Posts

    Lightbulb [ฝรั่ง]-The Wolf and the Lion (2021) -WEB-DL.EAC-3.1080p. [Modified]-[พากย์อังกฤษ 5.1 บรรยายไทย (Master)-อังกฤษ]




    ลูกสุนัขหมาป่าและลูกสิงโตที่หลงทางได้รับการช่วยเหล ือจากเด็กผู้หญิงในใจกลางถิ่นทุรกันดารของแคนาดา มิตรภาพของพวกเขาจะเปลี่ยนชีวิตพวกเขาไปตลอดกาล

    หลังจากคุณปู่ของเธอเสียชีวิต แอลมาวัย 20 ปีตัดสินใจกลับบ้านในวัยเด็กของเธอ ซึ่งเป็นเกาะเล็กๆ ใจกลางป่าแคนาดาที่สง่างาม ขณะอยู่ที่นั่น เธอช่วยลูกสองคนที่ทำอะไรไม่ถูก คือ หมาป่าและสิงโต พวกเขาสร้างสายสัมพันธ์ที่แยกไม่ออก แต่ในไม่ช้าโลกของพวกมันก็พังทลายลงเมื่อเจ้าหน้าที่ พิทักษ์ป่าค้นพบสัตว์และพาพวกมันไป สองพี่น้องลูกนี้ต้องเริ่มต้นการเดินทางที่ทรยศทั่วแ คนาดาเพื่อกลับมารวมตัวกับอีกคนหนึ่งและแอลมาอีกครั้ ง


    Format : Matroska
    Format version : Version 4
    File size : 4.34 GiB
    Duration : 1 h 39 min
    Overall bit rate : 6 226 kb/s
    Encoded date : UTC 2022-11-19 18:06:20
    Writing application : mkvmerge v55.0.0 ('Waiting For Space') 64-bit
    Writing library : libebml v1.4.2 + libmatroska v1.6.4

    Video
    ID : 1
    Format : AVC
    Format/Info : Advanced Video Codec
    Format profile : [email protected]
    Format settings : CABAC / 3 Ref Frames
    Format settings, CABAC : Yes
    Format settings, Reference : 3 frames
    Codec ID : V_MPEG4/ISO/AVC
    Duration : 1 h 39 min
    Bit rate : 5 567 kb/s
    Width : 1 920 pixels
    Height : 800 pixels
    Display aspect ratio : 2.40:1
    Frame rate mode : Constant
    Frame rate : 24.000 FPS
    Color space : YUV
    Chroma subsampling : 4:2:0
    Bit depth : 8 bits
    Scan type : Progressive
    Bits/(Pixel*Frame) : 0.151
    Stream size : 3.88 GiB (89%)
    Language : English
    Default : Yes
    Forced : No
    Color range : Limited
    Color primaries : BT.709
    Transfer characteristics : BT.709
    Matrix coefficients : BT.709

    Audio
    ID : 2
    Format : E-AC-3
    Format/Info : Enhanced AC-3
    Commercial name : Dolby Digital Plus
    Codec ID : A_EAC3
    Duration : 1 h 39 min
    Bit rate mode : Constant
    Bit rate : 640 kb/s
    Channel(s) : 6 channels
    Channel layout : L R C LFE Ls Rs
    Sampling rate : 48.0 kHz
    Frame rate : 31.250 FPS (1536 SPF)
    Compression mode : Lossy
    Stream size : 457 MiB (10%)
    Title : E-AC3 English
    Language : English
    Service kind : Complete Main
    Default : Yes
    Forced : No

    Text #1
    ID : 3
    Format : VobSub
    Muxing mode : zlib
    Codec ID : S_VOBSUB
    Codec ID/Info : Picture based subtitle format used on DVDs
    Duration : 1 h 36 min
    Bit rate : 9 240 b/s
    Frame rate : 0.155 FPS
    Count of elements : 900
    Stream size : 6.41 MiB (0%)
    Title : Sub Thai 1080p
    Language : Thai
    Default : No
    Forced : No

    Text #2
    ID : 4
    Format : UTF-8
    Codec ID : S_TEXT/UTF8
    Codec ID/Info : UTF-8 Plain Text
    Duration : 1 h 36 min
    Bit rate : 93 b/s
    Frame rate : 0.155 FPS
    Count of elements : 900
    Stream size : 66.6 KiB (0%)
    Title : Sub Thai SRT
    Language : Thai
    Default : No
    Forced : No

    Text #3
    ID : 5
    Format : PGS
    Muxing mode : zlib
    Codec ID : S_HDMV/PGS
    Codec ID/Info : Picture based subtitle format used on BDs/HD-DVDs
    Duration : 1 h 36 min
    Bit rate : 28.0 kb/s
    Frame rate : 0.309 FPS
    Count of elements : 1800
    Stream size : 19.4 MiB (0%)
    Title : Sub Thai PGS
    Language : Thai
    Default : Yes
    Forced : No

    Text #4
    ID : 6
    Format : UTF-8
    Codec ID : S_TEXT/UTF8
    Codec ID/Info : UTF-8 Plain Text
    Duration : 1 h 36 min
    Bit rate : 38 b/s
    Frame rate : 0.179 FPS
    Count of elements : 1036
    Stream size : 27.2 KiB (0%)
    Title : Sub English SRT
    Language : English
    Default : No
    Forced : No





    The_Wolf_and_the_Lion_(2021).mkv
    http://www.filecondo.com/dl.php?f=z4ec4b1OXcVa

    4.67 GB

  2. The Following User Says Thank You to Duckload.us For This Useful Post:

    Jodz14 (11-30-2022)

+ ตอบกลับกระทู้

ข้อมูลกระทู้

Users Browsing this Thread

ในขณะนี้มี 1 ท่านดูกระทู้อยู่. (0 สมาชิกและ 1 ผู้เยี่ยมชม)

     

กฎการโพสต์ข้อความ

  • ท่าน ไม่สามารถ ตั้งกระทู้ใหม่ได้
  • ท่าน ไม่สามารถ ตอบกระทู้ได้
  • ท่าน ไม่สามารถ แนบไฟล์ได้
  • ท่าน ไม่สามารถ แก้ไขข้อความโพสต์ได้
  • BB code สถานะ เปิด
  • Smilies สถานะ เปิด
  • [IMG] สถานะ เปิด
  • HTML สถานะ ปิด