+ ตอบกลับกระทู้
สรุปผลการค้นหา 1 ถึง 6 จากทั้งหมด 6
  1. #1
    Administrators รูปส่วนตัว Duckload.us
    สมัครเมื่อ
    Dec 2010
    โพสต์
    141,284
    Thanks
    7
    Thanked 147,955 Times in 64,426 Posts

    Lightbulb [ ฝรั่ง ใหม่!!! - พากย์ไทยมาสเตอร์ ]-Black Adam (2022) แบล็ก อดัม - Encode.H.264.1080p. [Modified]-[พากย์ไทย (Master)]



    เกือบ 5,000 ปีแล้วที่เขาได้รับสุดยอดพลังจากเทพเจ้าโบราณแล้วถูก คุมขังตัวเอาไว้ทันที ในที่สุด แบล็ค อดัม (จอห์นสัน) ก็ถูกปลดปล่อยจากสุสานของเขา แล้วพร้อมที่จะระเบิดมหาอำนาจแห่งความยุติธรรมของตนบ นโลกมนุษย์

    Format : MPEG-4
    Format profile : Base Media
    Codec ID : isom (isom/iso2/avc1/mp41)
    File size : 7.88 GiB
    Duration : 2 h 4 min
    Overall bit rate : 9 037 kb/s
    Writing application : Lavf57.71.100

    Video
    ID : 1
    Format : AVC
    Format/Info : Advanced Video Codec
    Format profile : [email protected]
    Format settings : CABAC / 1 Ref Frames
    Format settings, CABAC : Yes
    Format settings, Reference frames : 1 frame
    Format settings, GOP : M=1, N=25
    Codec ID : avc1
    Codec ID/Info : Advanced Video Coding
    Duration : 2 h 4 min
    Bit rate : 8 833 kb/s
    Width : 1 920 pixels
    Height : 1 080 pixels
    Display aspect ratio : 16:9
    Frame rate mode : Constant
    Frame rate : 29.970 (30000/1001) FPS
    Color space : YUV
    Chroma subsampling : 4:2:0
    Bit depth : 8 bits
    Scan type : Progressive
    Bits/(Pixel*Frame) : 0.142
    Stream size : 7.70 GiB (98%)
    Codec configuration box : avcC

    Audio
    ID : 2
    Format : AAC LC
    Format/Info : Advanced Audio Codec Low Complexity
    Codec ID : mp4a-40-2
    Duration : 2 h 4 min
    Bit rate mode : Constant
    Bit rate : 192 kb/s
    Channel(s) : 2 channels
    Channel layout : L R
    Sampling rate : 44.1 kHz
    Frame rate : 43.066 FPS (1024 SPF)
    Compression mode : Lossy
    Stream size : 175 MiB (2%)
    Default : Yes
    Alternate group : 1






    Black.Adam.2022.1080p.WEBRip.DDP5.1.x264_GOLD_CUP. mkv
    http://www.filecondo.com/dl.php?f=Zf68b71OZAOA
    8.93 GB

    Black_Adam_(2022)_แบล็ก_อดัม.mp4
    http://www.filecondo.com/dl.php?f=R29f051OZAB0
    8.46 GB

  2. The Following 8 Users Say Thank You to Duckload.us For This Useful Post:

    B-Faii (01-08-2023), bigbang06 (11-28-2022), Jodz14 (11-30-2022), kappa (11-28-2022), noi54 (11-29-2022), santanmoon (12-02-2022), sawara (12-07-2022), Wesker_TOT (11-29-2022)

  3. #2
    Member รูปส่วนตัว petpina2010
    สมัครเมื่อ
    Jun 2020
    โพสต์
    53
    Thanks
    13
    Thanked 0 Times in 0 Posts
    ขอบคุณครับ

  4. #3
    Senior Member
    สมัครเมื่อ
    Dec 2013
    โพสต์
    4,607
    Thanks
    6,505
    Thanked 0 Times in 0 Posts
    ขอบคุณครับ...

  5. #4
    Senior Member
    สมัครเมื่อ
    Dec 2013
    โพสต์
    753
    Thanks
    710
    Thanked 0 Times in 0 Posts
    ขอบคุณครับบ

  6. #5
    Senior Member
    สมัครเมื่อ
    Jul 2013
    โพสต์
    3,601
    Thanks
    0
    Thanked 0 Times in 0 Posts
    ขอบคุณครับ

  7. #6
    Senior Member รูปส่วนตัว B-Faii
    สมัครเมื่อ
    Oct 2012
    ที่อยู่
    THAILAND
    โพสต์
    1,391
    Thanks
    1,643
    Thanked 0 Times in 0 Posts
    ขอบคุณมากๆเลยจ้าาา

+ ตอบกลับกระทู้

ข้อมูลกระทู้

Users Browsing this Thread

ในขณะนี้มี 1 ท่านดูกระทู้อยู่. (0 สมาชิกและ 1 ผู้เยี่ยมชม)

     

กฎการโพสต์ข้อความ

  • ท่าน ไม่สามารถ ตั้งกระทู้ใหม่ได้
  • ท่าน ไม่สามารถ ตอบกระทู้ได้
  • ท่าน ไม่สามารถ แนบไฟล์ได้
  • ท่าน ไม่สามารถ แก้ไขข้อความโพสต์ได้
  • BB code สถานะ เปิด
  • Smilies สถานะ เปิด
  • [IMG] สถานะ เปิด
  • HTML สถานะ ปิด