+ ͺѺз
ػšä 1 ֧ 7 ҡ 7
  1. #1
    Administrators ٻǹ Duckload.us
    Ѥ
    Dec 2010
    ʵ
    141,284
    Thanks
    7
    Thanked 147,955 Times in 64,426 Posts

    Lightbulb []-(Netflix) TROLL (2022) -WEB-DL.H.264.1080p. [Netflix (web-dl)]-[ҡ ]




    ˹ѧͤ ͧ˹͸ҵ ͧӡѺǹ ҷѡ TROLL ˹ѧͧǢͧѡԷʵз÷ ͡ѹ׺ǹ ѧҡѡ㹵ӹҹҨԧ ѹ蹢ҨҡѺеԴ ҹѺȵ ѭҷ˭ҹ鹡 ѡ쵹·ءҧҧ˹ Сѧ觵çѧͧǧͧ Ҩش觷㹵ӹҹѧ

    Format : Matroska
    Format version : Version 4
    File size : 5.58 GiB
    Duration : 1 h 43 min
    Overall bit rate : 7 707 kb/s
    Movie name :
    Description : ˵Դҧ͡㹹ءؤ ҳ蹢 ˹ҷ֧ͺѡþԹԷҼ ҷҧشѹ ͹ءҧоѧԹ
    Encoded date : UTC 2022-12-01 10:10:47
    Writing application : mkvmerge v71.1.0 ('Fortitude') 64-bit
    Writing library : libebml v1.4.4 + libmatroska v1.7.1 / Lavf58.29.100
    Attachments : 81245455_1.jpg
    DATE : 2022

    Video
    ID : 1
    Format : HEVC
    Format/Info : High Efficiency Video Coding
    Format profile : [email protected]@Main
    Codec ID : V_MPEGH/ISO/HEVC
    Duration : 1 h 43 min
    Bit rate : 3 950 kb/s
    Width : 1 920 pixels
    Height : 800 pixels
    Display aspect ratio : 2.40:1
    Frame rate mode : Constant
    Frame rate : 24.000 FPS
    Color space : YUV
    Chroma subsampling : 4:2:0
    Bit depth : 8 bits
    Bits/(Pixel*Frame) : 0.107
    Stream size : 2.86 GiB (51%)
    Title : 2022.Troll_
    Default : No
    Forced : No

    Audio #1
    ID : 2
    Format : E-AC-3
    Format/Info : Enhanced AC-3
    Commercial name : Dolby Digital Plus
    Codec ID : A_EAC3
    Duration : 1 h 43 min
    Bit rate mode : Constant
    Bit rate : 640 kb/s
    Channel(s) : 6 channels
    Channel layout : L R C LFE Ls Rs
    Sampling rate : 48.0 kHz
    Frame rate : 31.250 FPS (1536 SPF)
    Bit depth : 32 bits
    Compression mode : Lossy
    Delay relative to video : -83 ms
    Stream size : 475 MiB (8%)
    Title : ѧ
    Language : English
    Service kind : Complete Main
    Default : No
    Forced : No

    Audio #2
    ID : 3
    Format : E-AC-3
    Format/Info : Enhanced AC-3
    Commercial name : Dolby Digital Plus
    Codec ID : A_EAC3
    Duration : 1 h 43 min
    Bit rate mode : Constant
    Bit rate : 640 kb/s
    Channel(s) : 6 channels
    Channel layout : L R C LFE Ls Rs
    Sampling rate : 48.0 kHz
    Frame rate : 31.250 FPS (1536 SPF)
    Bit depth : 32 bits
    Compression mode : Lossy
    Delay relative to video : -83 ms
    Stream size : 475 MiB (8%)
    Title :
    Language : Thai
    Service kind : Complete Main
    Default : Yes
    Forced : Yes

    Audio #3
    ID : 4
    Format : E-AC-3
    Format/Info : Enhanced AC-3
    Commercial name : Dolby Digital Plus
    Codec ID : A_EAC3
    Duration : 1 h 43 min
    Bit rate mode : Constant
    Bit rate : 640 kb/s
    Channel(s) : 6 channels
    Channel layout : L R C LFE Ls Rs
    Sampling rate : 48.0 kHz
    Frame rate : 31.250 FPS (1536 SPF)
    Bit depth : 32 bits
    Compression mode : Lossy
    Delay relative to video : -83 ms
    Stream size : 475 MiB (8%)
    Title : [鹩Ѻ]
    Service kind : Complete Main
    Default : No
    Forced : No

    Audio #4
    ID : 5
    Format : E-AC-3
    Format/Info : Enhanced AC-3
    Commercial name : Dolby Digital Plus
    Codec ID : A_EAC3
    Duration : 1 h 43 min
    Bit rate mode : Constant
    Bit rate : 192 kb/s
    Channel(s) : 6 channels
    Channel layout : L R C LFE Ls Rs
    Sampling rate : 48.0 kHz
    Frame rate : 31.250 FPS (1536 SPF)
    Bit depth : 32 bits
    Compression mode : Lossy
    Delay relative to video : -83 ms
    Stream size : 142 MiB (2%)
    Title : ѧ
    Language : English
    Service kind : Complete Main
    Default : No
    Forced : No

    Audio #5
    ID : 6
    Format : AAC LC SBR
    Format/Info : Advanced Audio Codec Low Complexity with Spectral Band Replication
    Commercial name : HE-AAC
    Format settings : Explicit
    Codec ID : A_AAC-2
    Duration : 1 h 43 min
    Bit rate : 192 kb/s
    Channel(s) : 6 channels
    Channel layout : C L R Ls Rs LFE
    Sampling rate : 48.0 kHz
    Frame rate : 23.438 FPS (2048 SPF)
    Compression mode : Lossy
    Delay relative to video : -83 ms
    Stream size : 142 MiB (2%)
    Title : ѧ
    Language : English
    Default : No
    Forced : No

    Audio #6
    ID : 7
    Format : AAC LC SBR
    Format/Info : Advanced Audio Codec Low Complexity with Spectral Band Replication
    Commercial name : HE-AAC
    Format settings : Explicit
    Codec ID : A_AAC-2
    Duration : 1 h 43 min
    Bit rate : 192 kb/s
    Channel(s) : 6 channels
    Channel layout : C L R Ls Rs LFE
    Sampling rate : 48.0 kHz
    Frame rate : 23.438 FPS (2048 SPF)
    Compression mode : Lossy
    Delay relative to video : -83 ms
    Stream size : 142 MiB (2%)
    Title :
    Language : Thai
    Default : Yes
    Forced : No

    Audio #7
    ID : 8
    Format : E-AC-3
    Format/Info : Enhanced AC-3
    Commercial name : Dolby Digital Plus
    Codec ID : A_EAC3
    Duration : 1 h 43 min
    Bit rate mode : Constant
    Bit rate : 192 kb/s
    Channel(s) : 6 channels
    Channel layout : L R C LFE Ls Rs
    Sampling rate : 48.0 kHz
    Frame rate : 31.250 FPS (1536 SPF)
    Bit depth : 32 bits
    Compression mode : Lossy
    Delay relative to video : -83 ms
    Stream size : 142 MiB (2%)
    Title :
    Language : Thai
    Service kind : Complete Main
    Default : Yes
    Forced : No

    Audio #8
    ID : 9
    Format : AAC LC SBR
    Format/Info : Advanced Audio Codec Low Complexity with Spectral Band Replication
    Commercial name : HE-AAC
    Format settings : Explicit
    Codec ID : A_AAC-2
    Duration : 1 h 43 min
    Bit rate : 192 kb/s
    Channel(s) : 6 channels
    Channel layout : C L R Ls Rs LFE
    Sampling rate : 48.0 kHz
    Frame rate : 23.438 FPS (2048 SPF)
    Compression mode : Lossy
    Delay relative to video : -83 ms
    Stream size : 142 MiB (2%)
    Title : [鹩Ѻ]
    Default : No
    Forced : No

    Audio #9
    ID : 10
    Format : E-AC-3
    Format/Info : Enhanced AC-3
    Commercial name : Dolby Digital Plus
    Codec ID : A_EAC3
    Duration : 1 h 43 min
    Bit rate mode : Constant
    Bit rate : 192 kb/s
    Channel(s) : 6 channels
    Channel layout : L R C LFE Ls Rs
    Sampling rate : 48.0 kHz
    Frame rate : 31.250 FPS (1536 SPF)
    Bit depth : 32 bits
    Compression mode : Lossy
    Delay relative to video : -83 ms
    Stream size : 142 MiB (2%)
    Title : [鹩Ѻ]
    Service kind : Complete Main
    Default : No
    Forced : No

    Audio #10
    ID : 11
    Format : AAC LC SBR
    Format/Info : Advanced Audio Codec Low Complexity with Spectral Band Replication
    Commercial name : HE-AAC
    Format settings : Explicit
    Codec ID : A_AAC-2
    Duration : 1 h 43 min
    Bit rate : 128 kb/s
    Channel(s) : 2 channels
    Channel layout : L R
    Sampling rate : 48.0 kHz
    Frame rate : 23.438 FPS (2048 SPF)
    Compression mode : Lossy
    Delay relative to video : -83 ms
    Stream size : 95.0 MiB (2%)
    Title : ѧ
    Language : English
    Default : No
    Forced : No

    Audio #11
    ID : 12
    Format : AAC LC SBR
    Format/Info : Advanced Audio Codec Low Complexity with Spectral Band Replication
    Commercial name : HE-AAC
    Format settings : Explicit
    Codec ID : A_AAC-2
    Duration : 1 h 43 min
    Bit rate : 128 kb/s
    Channel(s) : 2 channels
    Channel layout : L R
    Sampling rate : 48.0 kHz
    Frame rate : 23.438 FPS (2048 SPF)
    Compression mode : Lossy
    Delay relative to video : -83 ms
    Stream size : 95.0 MiB (2%)
    Title : [鹩Ѻ]
    Default : No
    Forced : No

    Audio #12
    ID : 13
    Format : AAC LC SBR
    Format/Info : Advanced Audio Codec Low Complexity with Spectral Band Replication
    Commercial name : HE-AAC
    Format settings : Explicit
    Codec ID : A_AAC-2
    Duration : 1 h 43 min
    Bit rate : 128 kb/s
    Channel(s) : 2 channels
    Channel layout : L R
    Sampling rate : 48.0 kHz
    Frame rate : 23.438 FPS (2048 SPF)
    Compression mode : Lossy
    Delay relative to video : -83 ms
    Stream size : 95.0 MiB (2%)
    Title :
    Language : Thai
    Default : No
    Forced : No

    Audio #13
    ID : 14
    Format : AAC LC SBR
    Format/Info : Advanced Audio Codec Low Complexity with Spectral Band Replication
    Commercial name : HE-AAC
    Format settings : Explicit
    Codec ID : A_AAC-2
    Duration : 1 h 43 min
    Bit rate : 96.0 kb/s
    Channel(s) : 2 channels
    Channel layout : L R
    Sampling rate : 48.0 kHz
    Frame rate : 23.438 FPS (2048 SPF)
    Compression mode : Lossy
    Delay relative to video : -83 ms
    Stream size : 71.2 MiB (1%)
    Title : ѧ
    Language : English
    Default : No
    Forced : No

    Audio #14
    ID : 15
    Format : AAC LC SBR
    Format/Info : Advanced Audio Codec Low Complexity with Spectral Band Replication
    Commercial name : HE-AAC
    Format settings : Explicit
    Codec ID : A_AAC-2
    Duration : 1 h 43 min
    Bit rate : 96.0 kb/s
    Channel(s) : 2 channels
    Channel layout : L R
    Sampling rate : 48.0 kHz
    Frame rate : 23.438 FPS (2048 SPF)
    Compression mode : Lossy
    Delay relative to video : -83 ms
    Stream size : 71.2 MiB (1%)
    Title : [鹩Ѻ]
    Default : No
    Forced : No

    Audio #15
    ID : 16
    Format : AAC LC SBR
    Format/Info : Advanced Audio Codec Low Complexity with Spectral Band Replication
    Commercial name : HE-AAC
    Format settings : Explicit
    Codec ID : A_AAC-2
    Duration : 1 h 43 min
    Bit rate : 96.0 kb/s
    Channel(s) : 2 channels
    Channel layout : L R
    Sampling rate : 48.0 kHz
    Frame rate : 23.438 FPS (2048 SPF)
    Compression mode : Lossy
    Delay relative to video : -83 ms
    Stream size : 71.2 MiB (1%)
    Title :
    Language : Thai
    Default : No
    Forced : No

    Text #1
    ID : 17
    Format : ASS
    Codec ID : S_TEXT/ASS
    Codec ID/Info : Advanced Sub Station Alpha
    Duration : 1 h 33 min
    Bit rate : 89 b/s
    Count of elements : 1254
    Compression mode : Lossless
    Stream size : 61.9 KiB (0%)
    Title : English
    Language : English
    Default : No
    Forced : No

    Text #2
    ID : 18
    Format : VobSub
    Muxing mode : zlib
    Codec ID : S_VOBSUB
    Codec ID/Info : Picture based subtitle format used on DVDs
    Duration : 1 h 41 min
    Bit rate : 256 b/s
    Count of elements : 29
    Stream size : 190 KiB (0%)
    Title : Thai (Forced Narrative)
    Language : Thai
    Default : No
    Forced : No

    Text #3
    ID : 19
    Format : ASS
    Codec ID : S_TEXT/ASS
    Codec ID/Info : Advanced Sub Station Alpha
    Duration : 1 h 41 min
    Bit rate : 3 b/s
    Count of elements : 29
    Compression mode : Lossless
    Stream size : 2.74 KiB (0%)
    Title : Thai (Forced Narrative)
    Language : Thai
    Default : No
    Forced : No

    Text #4
    ID : 20
    Format : VobSub
    Muxing mode : zlib
    Codec ID : S_VOBSUB
    Codec ID/Info : Picture based subtitle format used on DVDs
    Duration : 1 h 41 min
    Bit rate : 8 259 b/s
    Count of elements : 1162
    Stream size : 5.98 MiB (0%)
    Title : Thai
    Language : Thai
    Default : No
    Forced : No

    Text #5
    ID : 21
    Format : ASS
    Codec ID : S_TEXT/ASS
    Codec ID/Info : Advanced Sub Station Alpha
    Duration : 1 h 41 min
    Bit rate : 135 b/s
    Count of elements : 1162
    Compression mode : Lossless
    Stream size : 100 KiB (0%)
    Title : Thai
    Language : Thai
    Default : No
    Forced : No

    Text #6
    ID : 22
    Format : ASS
    Codec ID : S_TEXT/ASS
    Codec ID/Info : Advanced Sub Station Alpha
    Duration : 1 h 35 min
    Bit rate : 85 b/s
    Count of elements : 1108
    Compression mode : Lossless
    Stream size : 59.6 KiB (0%)
    Title : Norwegian Bokmål (CC)
    Default : No
    Forced : No

    Text #7
    ID : 23
    Format : ASS
    Codec ID : S_TEXT/ASS
    Codec ID/Info : Advanced Sub Station Alpha
    Duration : 1 h 40 min
    Bit rate : 69 b/s
    Count of elements : 1087
    Compression mode : Lossless
    Stream size : 51.7 KiB (0%)
    Title : English
    Language : English
    Default : No
    Forced : No





    2022.Troll__.mkv
    http://www.filecondo.com/dl.php?f=aaeed51P0Lmq

    6 GB

  2. The Following 7 Users Say Thank You to Duckload.us For This Useful Post:

    Jodz14 (12-05-2022), masaomi (12-02-2022), noi54 (12-08-2022), santanmoon (12-02-2022), sawara (12-08-2022), scsyn (12-02-2022), Wesker_TOT (12-02-2022)

  3. #2
    Senior Member
    Ѥ
    Dec 2013
    ʵ
    4,607
    Thanks
    6,505
    Thanked 0 Times in 0 Posts
    ͺسѺ...

  4. #3
    Senior Member
    Ѥ
    Jul 2013
    ʵ
    436
    Thanks
    1,818
    Thanked 0 Times in 0 Posts
    ͺسҡ ^^. Thnak U

  5. #4
    Senior Member
    Ѥ
    Sep 2019
    ʵ
    105
    Thanks
    0
    Thanked 0 Times in 0 Posts
    ͺسѺ

  6. #5
    Member ٻǹ petpina2010
    Ѥ
    Jun 2020
    ʵ
    53
    Thanks
    13
    Thanked 0 Times in 0 Posts
    ͺسѺ

  7. #6
    Junior Member
    Ѥ
    Feb 2012
    ʵ
    25
    Thanks
    1
    Thanked 1 Time in 1 Post
    Fllecondo Թ ѧ䧤Ѻ

  8. #7
    Senior Member
    Ѥ
    Dec 2013
    ʵ
    753
    Thanks
    710
    Thanked 0 Times in 0 Posts
    ͺسѺ

šз

Users Browsing this Thread

㹢й 1 ҹ١з. (0 Ҫԡ 1 )

     

ʵͤ

  • ҹ ö 駡з
  • ҹ ö ͺз
  • ҹ ö
  • ҹ ö 䢢ͤʵ