+ ตอบกลับกระทู้
สรุปผลการค้นหา 1 ถึง 2 จากทั้งหมด 2
  1. #1
    Administrators รูปส่วนตัว Duckload.us
    สมัครเมื่อ
    Dec 2010
    โพสต์
    141,284
    Thanks
    7
    Thanked 147,955 Times in 64,426 Posts

    Lightbulb [ฝรั่ง]-[Netflix] Big Bug (2022) บิ๊กบั๊ก [พากย์:ไทย+ฝรั่งเศส+อังกฤษ] [SUB:ไทย+อังกฤษ] [1080p]-WEB-DL.H.264.1080p. [Netflix (web-dl)]-[พากย์ไทย บรรยายไทย]




    เรื่องย่อ
    ในปี 2045 ซึ่งเป็นช่วงเวลาที่หุ่นยนต์ปัญญาประดิษฐ์อยู่ทุกที่ มนุษยชาติพึ่งพาพวกมันเพื่อเติมเต็มทุกความต้องการแล ะทุกความปรารถนา ไม่เว้นแม้กระทั่งเรื่องลับและเรื่องร้าย
    ในย่านที่อยู่อาศัยอันเงียบสงบ จู่ๆ หุ่นยนต์ในบ้าน 4 ตัวก็ตัดสินใจจับเจ้านายเป็นตัวประกันในบ้านของเขาเอ ง ครอบครัวที่ไม่ค่อยลงรอยกัน เพื่อนบ้านสาวที่บุกรุกเข้ามา และหุ่นยนต์เซ็กส์ที่กล้าได้กล้าเสียของเธอถูกบังคับ ให้ต้องทนอยู่ร่วมกันในบรรยากาศที่บ้าคลั่งขึ้นเรื่อ ยๆ ส่วนด้านนอก โยนิกซ์ซึ่งเป็นหุ่นยนต์รุ่นใหม่ล่าสุดกำลังพยายามเข ้ายึดครอง และเมื่อภัยคุกคามคืบคลานเข้ามามากขึ้น มนุษย์กลับมองไปทางอื่น เกิดความอิจฉาริษยา และจ้องทำลายล้างกันภายใต้สายตาสุดฉงนของหุ่นยนต์ในบ ้านของตัวเอง
    อาจจะเป็นหุ่นยนต์มากกว่าที่มีหัวจิตหัวใจ หรือว่าไม่ใช่!



    Format : Matroska
    Format version : Version 4 / Version 2
    File size : 7.35 GiB
    Duration : 1 h 51 min
    Overall bit rate mode : Variable
    Overall bit rate : 9 455 kb/s
    Movie name : [email protected]
    Encoded date : UTC 2022-02-11 15:02:43
    Writing application : mkvmerge v63.0.0 ('Everything') 64-bit
    Writing library : libebml v1.4.2 + libmatroska v1.6.4

    Video
    ID : 1
    Format : AVC
    Format/Info : Advanced Video Codec
    Format profile : [email protected]
    Format settings, CABAC : Yes
    Format settings, RefFrames : 4 frames
    Codec ID : V_MPEG4/ISO/AVC
    Duration : 1 h 51 min
    Bit rate mode : Variable
    Bit rate : 7 481 kb/s
    Maximum bit rate : 20.0 Mb/s
    Width : 1 920 pixels
    Height : 1 080 pixels
    Display aspect ratio : 16:9
    Frame rate mode : Constant
    Frame rate : 24.000 FPS
    Color space : YUV
    Chroma subsampling : 4:2:0
    Bit depth : 8 bits
    Scan type : Progressive
    Bits/(Pixel*Frame) : 0.150
    Stream size : 5.81 GiB (79%)
    Writing library : x264 core 148 r2727 7d026e8
    Encoding settings : cabac=1 / ref=4 / deblock=1:0:0 / analyse=0x3:0x111 / me=umh / subme=10 / psy=1 / psy_rd=1.00:0.00 / mixed_ref=1 / me_range=120 / chroma_me=1 / trellis=2 / 8x8dct=1 / cqm=0 / deadzone=21,11 / fast_pskip=1 / chroma_qp_offset=-2 / threads=8 / lookahead_threads=2 / sliced_threads=0 / nr=0 / decimate=1 / interlaced=0 / bluray_compat=0 / stitchable=1 / constrained_intra=0 / bframes=16 / b_pyramid=2 / b_adapt=2 / b_bias=0 / direct=3 / weightb=1 / open_gop=0 / weightp=2 / keyint=240 / keyint_min=121 / scenecut=0 / intra_refresh=0 / rc_lookahead=240 / rc=crf / mbtree=1 / crf=20.0 / qcomp=0.50 / qpmin=6 / qpmax=51 / qpstep=4 / vbv_maxrate=20000 / vbv_bufsize=25000 / crf_max=0.0 / nal_hrd=vbr / filler=0 / ip_ratio=1.40 / aq=1:0.80
    Default : Yes
    Forced : No

    Audio #1
    ID : 2
    Format : E-AC-3
    Format/Info : Enhanced Audio Coding 3
    Format settings, Endianness : Big
    Codec ID : A_EAC3
    Duration : 1 h 51 min
    Bit rate mode : Constant
    Bit rate : 640 kb/s
    Channel(s) : 6 channels
    Channel positions : Front: L C R, Side: L R, LFE
    Sampling rate : 48.0 kHz
    Frame rate : 187.500 FPS (256 SPF)
    Compression mode : Lossy
    Stream size : 509 MiB (7%)
    Title : Thai-DDP 5.1
    Language : Thai
    Service kind : Complete Main
    Default : Yes
    Forced : Yes

    Audio #2
    ID : 3
    Format : E-AC-3
    Format/Info : Enhanced Audio Coding 3
    Format settings, Endianness : Big
    Codec ID : A_EAC3
    Duration : 1 h 51 min
    Bit rate mode : Constant
    Bit rate : 640 kb/s
    Channel(s) : 6 channels
    Channel positions : Front: L C R, Side: L R, LFE
    Sampling rate : 48.0 kHz
    Frame rate : 187.500 FPS (256 SPF)
    Compression mode : Lossy
    Stream size : 509 MiB (7%)
    Title : French-DDP 5.1
    Language : French
    Service kind : Complete Main
    Default : Yes
    Forced : No

    Audio #3
    ID : 4
    Format : E-AC-3
    Format/Info : Enhanced Audio Coding 3
    Format settings, Endianness : Big
    Codec ID : A_EAC3
    Duration : 1 h 51 min
    Bit rate mode : Constant
    Bit rate : 640 kb/s
    Channel(s) : 6 channels
    Channel positions : Front: L C R, Side: L R, LFE
    Sampling rate : 48.0 kHz
    Frame rate : 187.500 FPS (256 SPF)
    Compression mode : Lossy
    Stream size : 509 MiB (7%)
    Title : English-DDP 5.1
    Language : English
    Service kind : Complete Main
    Default : Yes
    Forced : No

    Text #1
    ID : 5
    Format : PGS
    Muxing mode : zlib
    Codec ID : S_HDMV/PGS
    Codec ID/Info : Picture based subtitle format used on BDs/HD-DVDs
    Duration : 1 h 49 min
    Bit rate : 1 421 b/s
    Count of elements : 92
    Stream size : 1.11 MiB (0%)
    Title : Thai-FORCED PGS From Original NETFLIX
    Language : Thai
    Default : Yes
    Forced : Yes

    Text #2
    ID : 6
    Format : PGS
    Muxing mode : zlib
    Codec ID : S_HDMV/PGS
    Codec ID/Info : Picture based subtitle format used on BDs/HD-DVDs
    Duration : 1 h 49 min
    Bit rate : 67.8 kb/s
    Count of elements : 3284
    Stream size : 53.1 MiB (1%)
    Title : Thai-PGS From Original NETFLIX
    Language : Thai
    Default : Yes
    Forced : No

    Text #3
    ID : 7
    Format : VobSub
    Muxing mode : zlib
    Codec ID : S_VOBSUB
    Codec ID/Info : Picture based subtitle format used on DVDs
    Duration : 1 h 49 min
    Bit rate : 13.3 kb/s
    Count of elements : 1642
    Stream size : 10.4 MiB (0%)
    Title : Thai-VOBSUB From Original NETFLIX
    Language : Thai
    Default : Yes
    Forced : No

    Text #4
    ID : 8
    Format : UTF-8
    Codec ID : S_TEXT/UTF8
    Codec ID/Info : UTF-8 Plain Text
    Duration : 1 h 48 min
    Bit rate : 57 b/s
    Count of elements : 1665
    Stream size : 46.2 KiB (0%)
    Title : English-SRT
    Language : English
    Default : Yes
    Forced : No






    Big.Bug.2022.1080p.NF.APP-DL.DDP5.1.h264.mkv
    http://www.filecondo.com/dl.php?f=d9c6b81P0Yl9
    7.89 GB

  2. The Following 2 Users Say Thank You to Duckload.us For This Useful Post:

    jackjangri (12-03-2022), Jodz14 (12-02-2022)

  3. #2
    I'm donate !
    สมัครเมื่อ
    Jun 2011
    โพสต์
    574
    Thanks
    723
    Thanked 40 Times in 29 Posts
    thankyou...

+ ตอบกลับกระทู้

ข้อมูลกระทู้

Users Browsing this Thread

ในขณะนี้มี 1 ท่านดูกระทู้อยู่. (0 สมาชิกและ 1 ผู้เยี่ยมชม)

     

กฎการโพสต์ข้อความ

  • ท่าน ไม่สามารถ ตั้งกระทู้ใหม่ได้
  • ท่าน ไม่สามารถ ตอบกระทู้ได้
  • ท่าน ไม่สามารถ แนบไฟล์ได้
  • ท่าน ไม่สามารถ แก้ไขข้อความโพสต์ได้
  • BB code สถานะ เปิด
  • Smilies สถานะ เปิด
  • [IMG] สถานะ เปิด
  • HTML สถานะ ปิด