+ ตอบกลับกระทู้
สรุปผลการค้นหา 1 ถึง 5 จากทั้งหมด 5
  1. #1
    Administrators รูปส่วนตัว Duckload.us
    สมัครเมื่อ
    Dec 2010
    โพสต์
    141,284
    Thanks
    7
    Thanked 147,955 Times in 64,426 Posts

    Lightbulb [ฝรั่ง]-Willow S01E01-08 [1080p WEB-DL]-[เสียง: ไทย DD+ 5.1 + อังกฤษ DD+ Atmos 5.1]-[Sub: ไทย + อังกฤษ SRT]-WEB-DL.H.264.1080p. [Master]-[พากย์ไทย บรรยายไทย]



    -เรื่องย่อ-
    ชาวบ้านเนลวินต้อนรับเหล่านักผจญภัยหนุ่มสาวที่ราชิน ีซอร์ช่าส่งตัวมา วิลโลว์ อัฟกู๊ด หรือไฮอัลวิน คอยให้คำแนะนำพวกเขาขณะออกทำภารกิจนี้


    Video
    ID : 1
    Format : AVC
    Format/Info : Advanced Video Codec
    Format profile : [email protected]
    Format settings : CABAC / 4 Ref Frames
    Format settings, CABAC : Yes
    Format settings, Reference : 4 frames
    Codec ID : V_MPEG4/ISO/AVC
    Duration : 43 min 51 s
    Bit rate mode : Variable
    Bit rate : 6 453 kb/s
    Maximum bit rate : 12.7 Mb/s
    Width : 1 920 pixels
    Height : 1 080 pixels
    Display aspect ratio : 16:9
    Frame rate mode : Constant
    Frame rate : 24.000 FPS
    Color space : YUV
    Chroma subsampling : 4:2:0
    Bit depth : 8 bits
    Scan type : Progressive
    Bits/(Pixel*Frame) : 0.130
    Stream size : 1.98 GiB (87%)
    Language : English
    Default : Yes
    Forced : No
    Color range : Limited
    Color primaries : BT.709
    Transfer characteristics : BT.709
    Matrix coefficients : BT.709

    Audio #1
    ID : 2
    Format : E-AC-3 JOC
    Format/Info : Enhanced AC-3 with Joint Object Coding
    Commercial name : Dolby Digital Plus with Dolby Atmos
    Codec ID : A_EAC3
    Duration : 43 min 51 s
    Bit rate mode : Constant
    Bit rate : 768 kb/s
    Channel(s) : 6 channels
    Channel layout : L R C LFE Ls Rs
    Sampling rate : 48.0 kHz
    Frame rate : 31.250 FPS (1536 SPF)
    Compression mode : Lossy
    Stream size : 241 MiB (10%)
    Title : English (DD+ Atmos 5.1 - D+)
    Language : English
    Service kind : Complete Main
    Default : No
    Forced : No
    Complexity index : 16
    Number of dynamic objects : 15
    Bed channel count : 1 channel
    Bed channel configuration : LFE

    Audio #2
    ID : 3
    Format : E-AC-3
    Format/Info : Enhanced AC-3
    Commercial name : Dolby Digital Plus
    Codec ID : A_EAC3
    Duration : 43 min 51 s
    Bit rate mode : Constant
    Bit rate : 192 kb/s
    Channel(s) : 6 channels
    Channel layout : L R C LFE Ls Rs
    Sampling rate : 48.0 kHz
    Frame rate : 31.250 FPS (1536 SPF)
    Bit depth : 32 bits
    Compression mode : Lossy
    Delay relative to video : 8 ms
    Stream size : 60.2 MiB (3%)
    Title : Thai (DD+ 5.1 - Hotstar)
    Language : Thai
    Service kind : Complete Main
    Default : Yes
    Forced : No

    Text #1
    ID : 4
    Format : UTF-8
    Codec ID : S_TEXT/UTF8
    Codec ID/Info : UTF-8 Plain Text
    Duration : 40 min 33 s
    Bit rate : 82 b/s
    Frame rate : 0.327 FPS
    Count of elements : 796
    Stream size : 24.4 KiB (0%)
    Title : English (SRT - Hotstar)
    Language : English
    Default : No
    Forced : No

    Text #2
    ID : 5
    Format : UTF-8
    Codec ID : S_TEXT/UTF8
    Codec ID/Info : UTF-8 Plain Text
    Duration : 43 min 36 s
    Bit rate : 147 b/s
    Frame rate : 0.237 FPS
    Count of elements : 621
    Stream size : 47.1 KiB (0%)
    Title : Thai (SRT - Hotstar)
    Language : Thai
    Default : Yes
    Forced : No





    1 http://www.filecondo.com/dl.php?f=D00fd31P1nTZ
    2 http://www.filecondo.com/dl.php?f=bb73e01P1nUD
    3 http://www.filecondo.com/dl.php?f=l5da0c1P3d89
    4 http://www.filecondo.com/dl.php?f=T5fd4b1P6Ekf
    5 http://www.filecondo.com/dl.php?f=K9eb721P8jX3
    6 http://www.filecondo.com/dl.php?f=x9c2f61PaKS2
    7 http://www.filecondo.com/dl.php?f=Y706911Pdo33
    8 http://www.filecondo.com/dl.php?f=N1b8f31PfJzv

  2. The Following 3 Users Say Thank You to Duckload.us For This Useful Post:

    jackjangri (12-03-2022), petpina2010 (01-10-2023), Wesker_TOT (12-18-2022)

  3. #2
    I'm donate !
    สมัครเมื่อ
    Jun 2011
    โพสต์
    574
    Thanks
    723
    Thanked 40 Times in 29 Posts
    thankyou...

  4. #3
    Senior Member
    สมัครเมื่อ
    Dec 2013
    โพสต์
    4,607
    Thanks
    6,505
    Thanked 0 Times in 0 Posts
    ขอบคุณครับ...

  5. #4
    Member รูปส่วนตัว petpina2010
    สมัครเมื่อ
    Jun 2020
    โพสต์
    53
    Thanks
    13
    Thanked 0 Times in 0 Posts
    ขอบคุณครับ

  6. #5
    Junior Member
    สมัครเมื่อ
    Jan 2023
    โพสต์
    2
    Thanks
    0
    Thanked 0 Times in 0 Posts
    ขอบคุณครับผม

+ ตอบกลับกระทู้

ข้อมูลกระทู้

Users Browsing this Thread

ในขณะนี้มี 1 ท่านดูกระทู้อยู่. (0 สมาชิกและ 1 ผู้เยี่ยมชม)

     

กฎการโพสต์ข้อความ

  • ท่าน ไม่สามารถ ตั้งกระทู้ใหม่ได้
  • ท่าน ไม่สามารถ ตอบกระทู้ได้
  • ท่าน ไม่สามารถ แนบไฟล์ได้
  • ท่าน ไม่สามารถ แก้ไขข้อความโพสต์ได้
  • BB code สถานะ เปิด
  • Smilies สถานะ เปิด
  • [IMG] สถานะ เปิด
  • HTML สถานะ ปิด