+ ตอบกลับกระทู้
สรุปผลการค้นหา 1 ถึง 2 จากทั้งหมด 2
  1. #1
    Administrators รูปส่วนตัว Duckload.us
    สมัครเมื่อ
    Dec 2010
    โพสต์
    141,195
    Thanks
    7
    Thanked 147,889 Times in 64,391 Posts

    Lightbulb [ฝรั่ง]-Lyle, Lyle, Crocodile (2022) ไลล์ จระเข้ตัวพ่อ.. หัวใจล้อหล่อ-WEB-DL.EAC-3.Atmos.1080p. [Modified]-[พากย์อังกฤษ Atmos 5.1 บรรยายไทย (Master)-อังกฤษ]



    เมื่อครอบครัวพริมม์ย้ายไปนิวยอร์กซิตี้ จอช ลูกชายของพวกเขา จำเป็นต้องปรับตัวให้เข้ากับโรงเรียนใหม่และเพื่อนให ม่ แต่แล้วทุกอย่างก็เปลี่ยนไปเมื่อเขาได้พบ “ไลล์” จระเข้ร้องเพลงได้! (ขับร้องเพลงโดย “ชอว์น เมนเดส”) ที่รักการอาบน้ำ ชอบทานคาเวียร์ และชื่นชอบเสียงดนตรีที่ไพเราะ ซึ่งอาศัยอยู่ที่ห้องใต้หลังคา ทั้งสองกลายเป็นเพื่อนรักกัน แต่เมื่อไลล์ถูกเพื่อนบ้านชั่วร้ายรังแก ครอบครัวพริมม์จึงต้องร่วมมือกับ เฮ็คเตอร์ พี. วาเลนติ (นำแสดงโดย “ฮาเวียร์ บาเด็ม” นักแสดงรางวัลออสการ์) เจ้าของผู้เปี่ยมเสน่ห์ของไลล์ ในการแสดงให้โลกได้เห็นว่า พรสวรรค์อันยิ่งใหญ่ กำลังจะถูกค้นพบ กับจระเข้ร้องเพลงได้ ตัวใหญ่ แถมมีหัวใจล้อหล่อ

    Format : Matroska
    Format version : Version 4
    File size : 4.35 GiB
    Duration : 1 h 46 min
    Overall bit rate : 5 845 kb/s
    Encoded date : UTC 2022-12-04 14:10:24
    Writing application : mkvmerge v55.0.0 ('Waiting For Space') 64-bit
    Writing library : libebml v1.4.2 + libmatroska v1.6.4

    Video
    ID : 1
    Format : AVC
    Format/Info : Advanced Video Codec
    Format profile : [email protected]
    Format settings : CABAC / 3 Ref Frames
    Format settings, CABAC : Yes
    Format settings, Reference : 3 frames
    Codec ID : V_MPEG4/ISO/AVC
    Duration : 1 h 46 min
    Bit rate : 5 055 kb/s
    Width : 1 918 pixels
    Height : 802 pixels
    Display aspect ratio : 2.40:1
    Frame rate mode : Constant
    Frame rate : 23.976 (24000/1001) FPS
    Color space : YUV
    Chroma subsampling : 4:2:0
    Bit depth : 8 bits
    Scan type : Progressive
    Bits/(Pixel*Frame) : 0.137
    Stream size : 3.76 GiB (86%)
    Language : English
    Default : Yes
    Forced : No
    Color range : Limited
    Color primaries : BT.709
    Transfer characteristics : BT.709
    Matrix coefficients : BT.709

    Audio
    ID : 2
    Format : E-AC-3 JOC
    Format/Info : Enhanced AC-3 with Joint Object Coding
    Commercial name : Dolby Digital Plus with Dolby Atmos
    Codec ID : A_EAC3
    Duration : 1 h 46 min
    Bit rate mode : Constant
    Bit rate : 768 kb/s
    Channel(s) : 6 channels
    Channel layout : L R C LFE Ls Rs
    Sampling rate : 48.0 kHz
    Frame rate : 31.250 FPS (1536 SPF)
    Compression mode : Lossy
    Stream size : 586 MiB (13%)
    Title : E-AC3 Atmos English
    Language : English
    Service kind : Complete Main
    Default : Yes
    Forced : No
    Complexity index : 16
    Number of dynamic objects : 15
    Bed channel count : 1 channel
    Bed channel configuration : LFE

    Text #1
    ID : 3
    Format : VobSub
    Muxing mode : zlib
    Codec ID : S_VOBSUB
    Codec ID/Info : Picture based subtitle format used on DVDs
    Duration : 1 h 45 min
    Bit rate : 9 243 b/s
    Frame rate : 0.195 FPS
    Count of elements : 1236
    Stream size : 6.98 MiB (0%)
    Title : Sub Thai 1080p
    Language : Thai
    Default : No
    Forced : No

    Text #2
    ID : 4
    Format : UTF-8
    Codec ID : S_TEXT/UTF8
    Codec ID/Info : UTF-8 Plain Text
    Duration : 1 h 45 min
    Bit rate : 99 b/s
    Frame rate : 0.195 FPS
    Count of elements : 1236
    Stream size : 76.6 KiB (0%)
    Title : Sub Thai SRT
    Language : Thai
    Default : No
    Forced : No

    Text #3
    ID : 5
    Format : PGS
    Muxing mode : zlib
    Codec ID : S_HDMV/PGS
    Codec ID/Info : Picture based subtitle format used on BDs/HD-DVDs
    Duration : 1 h 45 min
    Bit rate : 29.2 kb/s
    Frame rate : 0.390 FPS
    Count of elements : 2472
    Stream size : 22.1 MiB (0%)
    Title : Sub Thai PGS
    Language : Thai
    Default : Yes
    Forced : No

    Text #4
    ID : 6
    Format : UTF-8
    Codec ID : S_TEXT/UTF8
    Codec ID/Info : UTF-8 Plain Text
    Duration : 1 h 38 min
    Bit rate : 51 b/s
    Frame rate : 0.210 FPS
    Count of elements : 1249
    Stream size : 37.5 KiB (0%)
    Title : Sub English SRT
    Language : English
    Default : No
    Forced : No

    Menu
    00:00:00.000 : en:Chapter 01
    00:05:30.205 : en:Chapter 02
    00:12:30.166 : en:Chapter 03
    00:19:28.960 : en:Chapter 04
    00:25:47.047 : en:Chapter 05
    00:32:14.392 : en:Chapter 06
    00:38:41.112 : en:Chapter 07
    00:46:31.875 : en:Chapter 08
    00:52:39.200 : en:Chapter 09
    00:59:03.418 : en:Chapter 10
    01:05:06.031 : en:Chapter 11
    01:11:06.474 : en:Chapter 12
    01:18:27.040 : en:Chapter 13
    01:26:05.915 : en:Chapter 14
    01:30:00.900 : en:Chapter 15
    01:38:56.644 : en:Chapter 16






    Lyle,_Lyle,_Crocodile_(2022).mkv
    http://www.filecondo.com/dl.php?f=g221211P2Qp1
    4.67 GB

  2. The Following User Says Thank You to Duckload.us For This Useful Post:

    jackjangri (12-12-2022)

  3. #2
    I'm donate !
    สมัครเมื่อ
    Jun 2011
    โพสต์
    574
    Thanks
    723
    Thanked 40 Times in 29 Posts
    thankyou...

+ ตอบกลับกระทู้

ข้อมูลกระทู้

Users Browsing this Thread

ในขณะนี้มี 1 ท่านดูกระทู้อยู่. (0 สมาชิกและ 1 ผู้เยี่ยมชม)

     

กฎการโพสต์ข้อความ

  • ท่าน ไม่สามารถ ตั้งกระทู้ใหม่ได้
  • ท่าน ไม่สามารถ ตอบกระทู้ได้
  • ท่าน ไม่สามารถ แนบไฟล์ได้
  • ท่าน ไม่สามารถ แก้ไขข้อความโพสต์ได้
  • BB code สถานะ เปิด
  • Smilies สถานะ เปิด
  • [IMG] สถานะ เปิด
  • HTML สถานะ ปิด