+ ตอบกลับกระทู้
สรุปผลการค้นหา 1 ถึง 4 จากทั้งหมด 4
  1. #1
    Administrators รูปส่วนตัว Duckload.us
    สมัครเมื่อ
    Dec 2010
    โพสต์
    141,195
    Thanks
    7
    Thanked 147,897 Times in 64,399 Posts

    Lightbulb [ฝรั่ง] The Contractor (2022) คนพิฆาตคอนแทรคเตอร์ (Sound:Eng/Thai Master)[ SUB:อังกฤษ/ไทย]



    หน่วยรบพิเศษ เจมส์ ฮาร์เปอร์ (คริส ไพน์) ที่ดันถูกปลดประจำการอย่างไม่ทันตั้งตัวจากกองทัพ และโดนตัดบำนาญ ทำให้เขาไม่สามารถจ่ายหนี้สินหรือหาเลี้ยงครอบครัวได ้ ความจนตรอกและซึมเศร้าทำให้ฮาร์เปอร์แอบติดต่อกับกอง กำลังใต้ดินเพื่อรับงานที่เขาถนัดอีกครั้ง ทว่านับตั้งแต่ภารกิจแรกเขาก็ต้องพบกับความไม่ชอบมาพ ากล ที่ทำให้เขาตกอยู่ท่ามกลางการไล่ล่าขององค์กรปริศนาท ี่แทบจะเอาชีวิตไม่รอด

    Format : Matroska
    Format version : Version 4
    File size : 9.04 GiB
    Duration : 1 h 43 min
    Overall bit rate : 12.5 Mb/s
    Movie name : The.Contractor.2022.1080p.WEBRip.DDP5.1.x264_&#169 ;GOLD CUP™_WWW.TT-TORRENT.COM
    Encoded date : UTC 2022-12-06 02:55:37
    Writing application : mkvmerge v68.0.0.1 ('The Curtain') 64-bit
    Writing library : libebml v1.4.2 + libmatroska v1.6.4
    Cover : Yes
    Attachments : cover

    Video
    ID : 1
    Format : AVC
    Format/Info : Advanced Video Codec
    Format profile : [email protected]
    Format settings : CABAC / 1 Ref Frames
    Format settings, CABAC : Yes
    Format settings, Reference frames : 1 frame
    Format settings, GOP : M=1, N=25
    Codec ID : V_MPEG4/ISO/AVC
    Duration : 1 h 43 min
    Bit rate mode : Constant
    Bit rate : 11.6 Mb/s
    Width : 1 920 pixels
    Height : 800 pixels
    Display aspect ratio : 2.40:1
    Frame rate mode : Constant
    Frame rate : 23.976 (24000/1001) FPS
    Color space : YUV
    Chroma subsampling : 4:2:0
    Bit depth : 8 bits
    Scan type : Progressive
    Bits/(Pixel*Frame) : 0.316
    Stream size : 8.41 GiB (93%)
    Title : The.Contractor.2022.1080p.WEBRip.DDP5.1.x264_&#169 ;GOLD CUP™
    Language : English
    Default : Yes
    Forced : No

    Audio #1
    ID : 2
    Format : AC-3
    Format/Info : Audio Coding 3
    Commercial name : Dolby Digital
    Codec ID : A_AC3
    Duration : 1 h 43 min
    Bit rate mode : Constant
    Bit rate : 192 kb/s
    Channel(s) : 2 channels
    Channel layout : L R
    Sampling rate : 48.0 kHz
    Frame rate : 31.250 FPS (1536 SPF)
    Compression mode : Lossy
    Stream size : 142 MiB (2%)
    Title : Th.2.0.AC3.192k
    Language : Thai
    Service kind : Complete Main
    Default : Yes
    Forced : No

    Audio #2
    ID : 3
    Format : E-AC-3
    Format/Info : Enhanced AC-3
    Commercial name : Dolby Digital Plus
    Codec ID : A_EAC3
    Duration : 1 h 43 min
    Bit rate mode : Constant
    Bit rate : 640 kb/s
    Channel(s) : 6 channels
    Channel layout : L R C LFE Ls Rs
    Sampling rate : 48.0 kHz
    Frame rate : 31.250 FPS (1536 SPF)
    Compression mode : Lossy
    Stream size : 474 MiB (5%)
    Title : En.EAC3.640 kb/s.6 channelsolby Digital Plus
    Language : English
    Service kind : Complete Main
    Default : No
    Forced : No

    Text #1
    ID : 4
    Format : UTF-8
    Codec ID : S_TEXT/UTF8
    Codec ID/Info : UTF-8 Plain Text
    Duration : 1 h 42 min
    Bit rate : 31 b/s
    Count of elements : 647
    Stream size : 23.9 KiB (0%)
    Title : Swedish
    Language : Swedish
    Default : No
    Forced : No

    Text #2
    ID : 5
    Format : PGS
    Muxing mode : zlib
    Codec ID : S_HDMV/PGS
    Codec ID/Info : Picture based subtitle format used on BDs/HD-DVDs
    Duration : 1 h 37 min
    Bit rate : 27.6 kb/s
    Count of elements : 1632
    Stream size : 19.3 MiB (0%)
    Title : Th.3.100.93.White
    Language : Thai
    Default : No
    Forced : No

    Text #3
    ID : 6
    Format : PGS
    Muxing mode : zlib
    Codec ID : S_HDMV/PGS
    Codec ID/Info : Picture based subtitle format used on BDs/HD-DVDs
    Duration : 1 h 37 min
    Bit rate : 33.5 kb/s
    Count of elements : 2044
    Stream size : 23.3 MiB (0%)
    Title : EN.SDH.110.3.83.Oreng
    Language : English
    Default : No
    Forced : No

    Menu
    00:00:00.000 : en:Amazon Original
    00:00:06.000 : en:Studio Logo
    00:00:33.000 : en:Scene 3
    00:01:28.000 : en:Scene 4
    00:03:33.000 : en:Scene 5
    00:08:39.000 : en:Scene 6
    00:10:41.000 : en:Scene 7
    00:15:12.000 : en:Scene 8
    00:21:12.000 : en:Scene 9
    00:22:47.000 : en:Scene 10
    00:26:26.000 : en:Scene 11
    00:28:26.000 : en:Scene 12
    00:30:25.000 : en:Scene 13
    00:33:31.000 : en:Scene 14
    00:44:02.000 : en:Scene 15
    00:47:44.000 : en:Scene 16
    00:49:44.000 : en:Scene 17
    00:55:08.000 : en:Scene 18
    00:58:06.000 : en:Scene 19
    01:05:49.000 : en:Scene 20
    01:12:15.000 : en:Scene 21
    01:21:02.000 : en:Scene 22
    01:22:36.000 : en:Scene 23
    01:26:48.000 : en:Scene 24
    01:30:58.000 : en:Scene 25
    01:36:42.000 : en:Scene 26
    01:37:43.000 : en:End Credits





    The.Contractor.2022.1080p.WEBRip.DDP5.1.x264_GOLD_ CUP.mkv
    http://www.filecondo.com/dl.php?f=I9f3851P2QHO
    9.7 GB

  2. The Following 4 Users Say Thank You to Duckload.us For This Useful Post:

    Jodz14 (12-11-2022), noi54 (12-08-2022), sawara (12-07-2022), Timarat (12-07-2022)

  3. #2
    Senior Member
    สมัครเมื่อ
    Dec 2013
    โพสต์
    753
    Thanks
    710
    Thanked 0 Times in 0 Posts
    ขอบคุณครับบ

  4. #3
    Member รูปส่วนตัว petpina2010
    สมัครเมื่อ
    Jun 2020
    โพสต์
    52
    Thanks
    12
    Thanked 0 Times in 0 Posts
    ขอบคุณครับ

  5. #4
    Senior Member
    สมัครเมื่อ
    Jul 2013
    โพสต์
    121
    Thanks
    0
    Thanked 0 Times in 0 Posts
    โหลดไม่ได้ครับ

+ ตอบกลับกระทู้

ข้อมูลกระทู้

Users Browsing this Thread

ในขณะนี้มี 1 ท่านดูกระทู้อยู่. (0 สมาชิกและ 1 ผู้เยี่ยมชม)

     

กฎการโพสต์ข้อความ

  • ท่าน ไม่สามารถ ตั้งกระทู้ใหม่ได้
  • ท่าน ไม่สามารถ ตอบกระทู้ได้
  • ท่าน ไม่สามารถ แนบไฟล์ได้
  • ท่าน ไม่สามารถ แก้ไขข้อความโพสต์ได้
  • BB code สถานะ เปิด
  • Smilies สถานะ เปิด
  • [IMG] สถานะ เปิด
  • HTML สถานะ ปิด