+ ตอบกลับกระทู้
สรุปผลการค้นหา 1 ถึง 3 จากทั้งหมด 3
  1. #1
    Administrators รูปส่วนตัว Duckload.us
    สมัครเมื่อ
    Dec 2010
    โพสต์
    141,195
    Thanks
    7
    Thanked 147,888 Times in 64,390 Posts

    Lightbulb [ฝรั่ง]-Amsterdam (2022) [1080p Blu-ray Rip]-[เสียง: ไทย DD+ 5.1 + อังกฤษ DTS-HD MA 7.1]-[Sub: ไทย SRT + อังกฤษ PGS/SRT]-Blu-ray.H.264.1080p. [Master]-[พากย์ไทย บรรยายไทย] 



    -เรื่องย่อ-
    เรื่องราวผสมผสานข้อมูลเชิงประวัติศาสตร์ของสามเพื่อ นรักที่เข้ามาพัวพันกับมหากาพย์อาชญากรรม และเป็นศูนย์กลางของแผนการลับที่น่าสะพรึงที่สุดในปร ะวัติศาสตร์อเมริกา

    Video
    ID : 1
    Format : AVC
    Format/Info : Advanced Video Codec
    Format profile : [email protected]
    Format settings : CABAC / 5 Ref Frames
    Format settings, CABAC : Yes
    Format settings, Reference : 5 frames
    Codec ID : V_MPEG4/ISO/AVC
    Duration : 2 h 14 min
    Bit rate : 11.9 Mb/s
    Width : 1 920 pixels
    Height : 804 pixels
    Display aspect ratio : 2.40:1
    Frame rate mode : Constant
    Frame rate : 23.976 (24000/1001) FPS
    Color space : YUV
    Chroma subsampling : 4:2:0
    Bit depth : 8 bits
    Scan type : Progressive
    Bits/(Pixel*Frame) : 0.321
    Stream size : 11.1 GiB (73%)
    Writing library : x264 core 164 r3101 b093bbe
    Encoding settings : cabac=1 / ref=5 / deblock=1:-3:-3 / analyse=0x3:0x133 / me=umh / subme=9 / psy=1 / psy_rd=1.00:0.00 / mixed_ref=1 / me_range=16 / chroma_me=1 / trellis=2 / 8x8dct=1 / cqm=0 / deadzone=21,11 / fast_pskip=0 / chroma_qp_offset=-2 / threads=25 / lookahead_threads=2 / sliced_threads=0 / nr=0 / decimate=1 / interlaced=0 / bluray_compat=0 / constrained_intra=0 / bframes=3 / b_pyramid=2 / b_adapt=2 / b_bias=0 / direct=3 / weightb=1 / open_gop=0 / weightp=2 / keyint=250 / keyint_min=23 / scenecut=40 / intra_refresh=0 / rc_lookahead=60 / rc=crf / mbtree=1 / crf=13.0 / qcomp=0.60 / qpmin=0 / qpmax=69 / qpstep=4 / ip_ratio=1.40 / aq=1:1.00
    Language : English
    Default : Yes
    Forced : No

    Audio #1
    ID : 2
    ID in the original source m : 4352 (0x1100)
    Format : DTS XLL
    Format/Info : Digital Theater Systems
    Commercial name : DTS-HD Master Audio
    Codec ID : A_DTS
    Duration : 2 h 14 min
    Bit rate mode : Variable
    Bit rate : 4 056 kb/s
    Channel(s) : 8 channels
    Channel layout : C L R LFE Lb Rb Lss Rss
    Sampling rate : 48.0 kHz
    Frame rate : 93.750 FPS (512 SPF)
    Bit depth : 24 bits
    Compression mode : Lossless
    Stream size : 3.80 GiB (25%)
    Title : English (DTS-HD MA 5.1 - BD)
    Language : English
    Default : No
    Forced : No
    Original source medium : Blu-ray

    Audio #2
    ID : 3
    Format : E-AC-3
    Format/Info : Enhanced AC-3
    Commercial name : Dolby Digital Plus
    Codec ID : A_EAC3
    Duration : 2 h 14 min
    Bit rate mode : Constant
    Bit rate : 192 kb/s
    Channel(s) : 6 channels
    Channel layout : L R C LFE Ls Rs
    Sampling rate : 48.0 kHz
    Frame rate : 31.250 FPS (1536 SPF)
    Compression mode : Lossy
    Delay relative to video : 2 s 0 ms
    Stream size : 184 MiB (1%)
    Title : Thai (DD+ 5.1 - Hotstar)
    Language : Thai
    Service kind : Complete Main
    Default : Yes
    Forced : No

    Text #1
    ID : 4
    ID in the original source m : 4608 (0x1200)
    Format : PGS
    Muxing mode : zlib
    Codec ID : S_HDMV/PGS
    Codec ID/Info : Picture based subtitle format used on BDs/HD-DVDs
    Duration : 2 h 12 min
    Bit rate : 73.7 kb/s
    Frame rate : 0.794 FPS
    Count of elements : 6318
    Stream size : 69.9 MiB (0%)
    Title : English (PGS - BD)
    Language : English
    Default : No
    Forced : No
    Original source medium : Blu-ray

    Text #2
    ID : 5
    Format : UTF-8
    Codec ID : S_TEXT/UTF8
    Codec ID/Info : UTF-8 Plain Text
    Duration : 2 h 12 min
    Bit rate : 102 b/s
    Frame rate : 0.397 FPS
    Count of elements : 3159
    Stream size : 99.9 KiB (0%)
    Title : English (SRT - Hotstar)
    Language : English
    Default : No
    Forced : No

    Text #3
    ID : 6
    Format : UTF-8
    Codec ID : S_TEXT/UTF8
    Codec ID/Info : UTF-8 Plain Text
    Duration : 2 h 13 min
    Bit rate : 204 b/s
    Frame rate : 0.308 FPS
    Count of elements : 2460
    Stream size : 199 KiB (0%)
    Title : Thai (SRT - Hotstar)
    Language : Thai
    Default : Yes
    Forced : No





    Amsterdam.2022.1080p.BluRay.DTS-HD.MA.5.1.x264.mkv
    http://www.filecondo.com/dl.php?f=09bb3f1P3brV
    16.26 GB

    Amsterdam.2022.1080p.WEB-DL.DDP5.1.Atmos.H264_GOLD_CUP.mkv
    http://www.filecondo.com/dl.php?f=P049f91P3XRm
    8.96 GB

  2. The Following 5 Users Say Thank You to Duckload.us For This Useful Post:

    jackjangri (12-08-2022), Jodz14 (12-11-2022), kappa (01-14-2023), noi54 (12-10-2022), Wesker_TOT (01-13-2023)

  3. #2
    I'm donate !
    สมัครเมื่อ
    Jun 2011
    โพสต์
    574
    Thanks
    723
    Thanked 40 Times in 29 Posts
    thankyou...

  4. #3
    Senior Member
    สมัครเมื่อ
    Dec 2013
    โพสต์
    4,581
    Thanks
    6,479
    Thanked 0 Times in 0 Posts
    ขอบคุณครับ...

+ ตอบกลับกระทู้

ข้อมูลกระทู้

Users Browsing this Thread

ในขณะนี้มี 1 ท่านดูกระทู้อยู่. (0 สมาชิกและ 1 ผู้เยี่ยมชม)

     

กฎการโพสต์ข้อความ

  • ท่าน ไม่สามารถ ตั้งกระทู้ใหม่ได้
  • ท่าน ไม่สามารถ ตอบกระทู้ได้
  • ท่าน ไม่สามารถ แนบไฟล์ได้
  • ท่าน ไม่สามารถ แก้ไขข้อความโพสต์ได้
  • BB code สถานะ เปิด
  • Smilies สถานะ เปิด
  • [IMG] สถานะ เปิด
  • HTML สถานะ ปิด