+ ตอบกลับกระทู้
สรุปผลการค้นหา 1 ถึง 6 จากทั้งหมด 6
  1. #1
    Administrators รูปส่วนตัว Duckload.us
    สมัครเมื่อ
    Dec 2010
    โพสต์
    151,817
    Thanks
    7
    Thanked 158,780 Times in 69,420 Posts

    Lightbulb [ฝรั่ง]-The Mandalorian Season 3 (2023) : เดอะแมนดาลอเรียน ซีซั่น 3 | EP1-8 END [เสียงไทย + เสียงอังกฤษ] [บรรยายไทย + อังกฤษ] [เสียงไทย + ซับไทย From Disney Plus + ซับ SRT , PGS]-WEB-DL.H.264.1080p. [Hi-def rip from Master]-[พากย์ไทย บรรยายไทย]




    Star Wars: The Mandalorian ซีซัน 3 นั้น จะสานต่อการเดินทางของ Mandalorian ต่อไป ดิน จาริน (Din Djarin) ที่ครั้งหนึ่งเคยเป็นนักล่าค่าหัวผู้โดดเดี่ยว เขาได้กลับมาเจอกับ โกรกู (Grogu) อีกครั้ง ในขณะเดียวกัน สาธารณรัฐใหม่ก็พยายามดิ้นรนให้กาแลคซีออกห่างจากประ วัติศาสตร์อันมืดมน ในการเดินทางครั้งนี้ของ แมนดาลอเรี่ยนและโกรกู พวกเขาจะได้พานพบกับพันธมิตรเก่า แต่ในขณะเดียวกัน ก็ได้สร้างศัตรูใหม่เพิ่มขึ้นด้วย

    Format : Matroska
    Format version : Version 4
    File size : 2.45 GiB
    Duration : 56 min 11 s
    Overall bit rate mode : Variable
    Overall bit rate : 6 236 kb/s
    Movie name : The.Mandalorian.S03E03.Chapter.19.The.Convert.1080 p.DSNP.WEB-DL.DDP5.1.x.264_SkiesIT
    Encoded date : UTC 2023-03-16 06:47:56
    Writing application : mkvmerge v74.0.0 ('You Oughta Know') 64-bit
    Writing library : libebml v1.4.4 + libmatroska v1.7.1

    Video
    ID : 1
    Format : AVC
    Format/Info : Advanced Video Codec
    Format profile : High@L4
    Format settings : CABAC / 4 Ref Frames
    Format settings, CABAC : Yes
    Format settings, Reference frames : 4 frames
    Codec ID : V_MPEG4/ISO/AVC
    Duration : 56 min 11 s
    Bit rate mode : Variable
    Bit rate : 5 010 kb/s
    Maximum bit rate : 12.7 Mb/s
    Width : 1 920 pixels
    Height : 1 080 pixels
    Display aspect ratio : 16:9
    Frame rate mode : Constant
    Frame rate : 24.000 FPS
    Color space : YUV
    Chroma subsampling : 4:2:0
    Bit depth : 8 bits
    Scan type : Progressive
    Bits/(Pixel*Frame) : 0.101
    Stream size : 1.97 GiB (80%)
    Title : The.Mandalorian.S03E03.Chapter.19.The.Convert.1080 p.DSNP.WEB-DL.DDP5.1.x.264_SkiesIT
    Default : Yes
    Forced : No
    Color range : Limited
    Color primaries : BT.709
    Transfer characteristics : BT.709
    Matrix coefficients : BT.709

    Audio #1
    ID : 2
    Format : E-AC-3 JOC
    Format/Info : Enhanced AC-3 with Joint Object Coding
    Commercial name : Dolby Digital Plus with Dolby Atmos
    Codec ID : A_EAC3
    Duration : 56 min 11 s
    Bit rate mode : Constant
    Bit rate : 768 kb/s
    Channel(s) : 6 channels
    Channel layout : L R C LFE Ls Rs
    Sampling rate : 48.0 kHz
    Frame rate : 31.250 FPS (1536 SPF)
    Compression mode : Lossy
    Stream size : 309 MiB (12%)
    Language : English
    Service kind : Complete Main
    Default : Yes
    Forced : No
    Complexity index : 16
    Number of dynamic objects : 15
    Bed channel count : 1 channel
    Bed channel configuration : LFE

    Audio #2
    ID : 3
    Format : E-AC-3
    Format/Info : Enhanced AC-3
    Commercial name : Dolby Digital Plus
    Codec ID : A_EAC3
    Duration : 56 min 11 s
    Bit rate mode : Constant
    Bit rate : 320 kb/s
    Channel(s) : 2 channels
    Channel layout : L R
    Sampling rate : 44.1 kHz
    Frame rate : 28.711 FPS (1536 SPF)
    Compression mode : Lossy
    Stream size : 129 MiB (5%)
    Language : Thai
    Service kind : Complete Main
    Default : No
    Forced : No

    Text #1
    ID : 4
    Format : UTF-8
    Codec ID : S_TEXT/UTF8
    Codec ID/Info : UTF-8 Plain Text
    Duration : 55 min 58 s
    Bit rate : 95 b/s
    Frame rate : 0.163 FPS
    Count of elements : 546
    Stream size : 39.2 KiB (0%)
    Title : Thai SRT From Disney Plus
    Language : Thai
    Default : No
    Forced : No

    Text #2
    ID : 5
    Format : UTF-8
    Codec ID : S_TEXT/UTF8
    Codec ID/Info : UTF-8 Plain Text
    Duration : 52 min 42 s
    Bit rate : 45 b/s
    Frame rate : 0.174 FPS
    Count of elements : 550
    Stream size : 17.6 KiB (0%)
    Title : English
    Language : English
    Default : No
    Forced : No

    Text #3
    ID : 6
    Format : UTF-8
    Codec ID : S_TEXT/UTF8
    Codec ID/Info : UTF-8 Plain Text
    Duration : 52 min 42 s
    Bit rate : 53 b/s
    Frame rate : 0.210 FPS
    Count of elements : 664
    Stream size : 20.5 KiB (0%)
    Title : English SDH
    Language : English
    Default : No
    Forced : No

    Text #4
    ID : 7
    Format : PGS
    Muxing mode : zlib
    Codec ID : S_HDMV/PGS
    Codec ID/Info : Picture based subtitle format used on BDs/HD-DVDs
    Duration : 55 min 58 s
    Bit rate : 42.5 kb/s
    Frame rate : 0.325 FPS
    Count of elements : 1092
    Stream size : 17.0 MiB (1%)
    Title : Thai PGS [Angsana]
    Language : Thai
    Default : No
    Forced : No

    Text #5
    ID : 8
    Format : PGS
    Muxing mode : zlib
    Codec ID : S_HDMV/PGS
    Codec ID/Info : Picture based subtitle format used on BDs/HD-DVDs
    Duration : 55 min 58 s
    Bit rate : 42.5 kb/s
    Frame rate : 0.325 FPS
    Count of elements : 1092
    Stream size : 17.0 MiB (1%)
    Title : Thai PGS [Angsana Yellow]
    Language : Thai
    Default : No
    Forced : No

    Text #6
    ID : 9
    Format : PGS
    Muxing mode : zlib
    Codec ID : S_HDMV/PGS
    Codec ID/Info : Picture based subtitle format used on BDs/HD-DVDs
    Duration : 55 min 58 s
    Bit rate : 40.6 kb/s
    Frame rate : 0.325 FPS
    Count of elements : 1092
    Stream size : 16.2 MiB (1%)
    Title : Thai PGS [Niramit]
    Language : Thai
    Default : No
    Forced : No

    Text #7
    ID : 10
    Format : PGS
    Muxing mode : zlib
    Codec ID : S_HDMV/PGS
    Codec ID/Info : Picture based subtitle format used on BDs/HD-DVDs
    Duration : 55 min 58 s
    Bit rate : 40.6 kb/s
    Frame rate : 0.325 FPS
    Count of elements : 1092
    Stream size : 16.2 MiB (1%)
    Title : Thai PGS [Niramit Yellow]
    Language : Thai
    Default : No
    Forced : No

    Text #8
    ID : 11
    Format : PGS
    Muxing mode : zlib
    Codec ID : S_HDMV/PGS
    Codec ID/Info : Picture based subtitle format used on BDs/HD-DVDs
    Duration : 55 min 58 s
    Bit rate : 41.7 kb/s
    Frame rate : 0.325 FPS
    Count of elements : 1092
    Stream size : 16.7 MiB (1%)
    Title : Thai PGS [Droid Sans]
    Language : Thai
    Default : No
    Forced : No

    Text #9
    ID : 12
    Format : PGS
    Muxing mode : zlib
    Codec ID : S_HDMV/PGS
    Codec ID/Info : Picture based subtitle format used on BDs/HD-DVDs
    Duration : 55 min 58 s
    Bit rate : 41.7 kb/s
    Frame rate : 0.325 FPS
    Count of elements : 1092
    Stream size : 16.7 MiB (1%)
    Title : Thai PGS [Droid Sans Yellow]
    Language : Thai
    Default : No
    Forced : No

    Text #10
    ID : 13
    Format : PGS
    Muxing mode : zlib
    Codec ID : S_HDMV/PGS
    Codec ID/Info : Picture based subtitle format used on BDs/HD-DVDs
    Duration : 52 min 42 s
    Bit rate : 48.5 kb/s
    Frame rate : 0.348 FPS
    Count of elements : 1100
    Stream size : 18.3 MiB (1%)
    Title : English PGS
    Language : English
    Default : No
    Forced : No

    Menu
    00:00:00.000 : en:Recap
    00:00:59.080 : en:Chapter 1
    00:00:59.122 : en:Intro
    00:01:23.414 : en:Chapter 2
    00:19:04.580 : en:Chapter 3
    00:30:15.914 : en:Chapter 4
    00:38:02.330 : en:Chapter 5
    00:53:11.455 : en:Credits











    1 http://www.filecondo.com/dl.php?f=x5dab91PCMnC
    2 http://www.filecondo.com/dl.php?f=ffdf831PCMvk
    3 http://www.filecondo.com/dl.php?f=Vd9c421PCMKw
    4 http://www.filecondo.com/dl.php?f=wabdb51PGmQT
    4 http://www.filecondo.com/dl.php?f=Iabdb51PGUqZ
    5 http://www.filecondo.com/dl.php?f=Rcbb291PHPxb
    6 http://www.filecondo.com/dl.php?f=E1fd8a1PK25N
    7 http://www.filecondo.com/dl.php?f=X75c7a1PMyy3
    8 http://www.filecondo.com/dl.php?f=Kf8fee1PQa4S [Soundtrack บรรยายไทย]
    8 http://www.filecondo.com/dl.php?f=b110581PQVuY [พากย์ไทย บรรยายไทย]

  2. The Following 7 Users Say Thank You to Duckload.us For This Useful Post:

    Nam1499 (03-18-2024), neorun (04-12-2023), noi54 (04-24-2023), petpina2010 (04-03-2023), sawara (04-04-2023), scsyn (04-18-2023), Wesker_TOT (03-18-2023)

  3. #2
    Senior Member
    สมัครเมื่อ
    Dec 2013
    โพสต์
    6,241
    Thanks
    8,224
    Thanked 0 Times in 0 Posts
    ขอบคุณครับ...

  4. #3
    Senior Member รูปส่วนตัว petpina2010
    สมัครเมื่อ
    Jun 2020
    โพสต์
    252
    Thanks
    252
    Thanked 0 Times in 0 Posts
    ขอบคุณครับ

  5. #4
    Senior Member
    สมัครเมื่อ
    Jul 2012
    โพสต์
    8,660
    Thanks
    0
    Thanked 0 Times in 0 Posts
    ขอบคุณมากจ้า

  6. #5
    Senior Member
    สมัครเมื่อ
    Dec 2013
    โพสต์
    1,067
    Thanks
    1,031
    Thanked 0 Times in 0 Posts
    ขอบคุณครับบ

  7. #6
    Senior Member
    สมัครเมื่อ
    Feb 2024
    โพสต์
    342
    Thanks
    310
    Thanked 0 Times in 0 Posts
    ข อ บ คุ ณ ม า ก ค่ ะ

+ ตอบกลับกระทู้

ข้อมูลกระทู้

Users Browsing this Thread

ในขณะนี้มี 1 ท่านดูกระทู้อยู่. (0 สมาชิกและ 1 ผู้เยี่ยมชม)

     

กฎการโพสต์ข้อความ

  • ท่าน ไม่สามารถ ตั้งกระทู้ใหม่ได้
  • ท่าน ไม่สามารถ ตอบกระทู้ได้
  • ท่าน ไม่สามารถ แนบไฟล์ได้
  • ท่าน ไม่สามารถ แก้ไขข้อความโพสต์ได้
  • BB code สถานะ เปิด
  • Smilies สถานะ เปิด
  • [IMG] สถานะ เปิด
  • HTML สถานะ ปิด