+ ͺѺз
ػšä 1 ֧ 2 ҡ 2
  1. #1
    Administrators ٻǹ Duckload.us
    Ѥ
    Dec 2010
    ʵ
    142,474
    Thanks
    7
    Thanked 149,096 Times in 65,001 Posts

    Lightbulb []-Cocaine Bear (2023) դ-WEB-DL.EAC-3.Atmos.1080p. [Modified]-[ҡѧ Atmos 5.1 (͹ѹ ⾸٧)-ѧ]




    ҧҨҡ˵ءóԧ㹻 1985 ͧԹͧѡʾԴԴŧҧ մӵ˹觴ѹԹहͧԹ价 ا ѺͧǴ졤Сͺ仴·駵Ǩ , Ҫҡ, ѡͧ Һèѹ˹Ѱ·ѡ˹ 500 ͹͡Ҵ

    Format : Matroska
    Format version : Version 4
    File size : 4.30 GiB
    Duration : 1 h 35 min
    Overall bit rate : 6 435 kb/s
    Encoded date : UTC 2023-03-15 12:02:34
    Writing application : mkvmerge v67.0.0 ('Under Stars') 64-bit
    Writing library : libebml v1.4.2 + libmatroska v1.6.4

    Video
    ID : 1
    Format : AVC
    Format/Info : Advanced Video Codec
    Format profile : [email protected]
    Format settings : CABAC / 3 Ref Frames
    Format settings, CABAC : Yes
    Format settings, Reference : 3 frames
    Codec ID : V_MPEG4/ISO/AVC
    Duration : 1 h 35 min
    Bit rate : 5 646 kb/s
    Width : 1 920 pixels
    Height : 804 pixels
    Display aspect ratio : 2.40:1
    Frame rate mode : Variable
    Frame rate : 23.976 FPS
    Color space : YUV
    Chroma subsampling : 4:2:0
    Bit depth : 8 bits
    Scan type : Progressive
    Bits/(Pixel*Frame) : 0.153
    Stream size : 3.77 GiB (88%)
    Language : English
    Default : Yes
    Forced : No
    Color range : Limited
    Color primaries : BT.709
    Transfer characteristics : BT.709
    Matrix coefficients : BT.709

    Audio
    ID : 2
    Format : E-AC-3 JOC
    Format/Info : Enhanced AC-3 with Joint Object Coding
    Commercial name : Dolby Digital Plus with Dolby Atmos
    Codec ID : A_EAC3
    Duration : 1 h 35 min
    Bit rate mode : Constant
    Bit rate : 768 kb/s
    Channel(s) : 6 channels
    Channel layout : L R C LFE Ls Rs
    Sampling rate : 48.0 kHz
    Frame rate : 31.250 FPS (1536 SPF)
    Compression mode : Lossy
    Delay relative to video : 80 ms
    Stream size : 525 MiB (12%)
    Title : E-AC3 Atmos English
    Language : English
    Service kind : Complete Main
    Default : Yes
    Forced : No
    Complexity index : 16
    Number of dynamic objects : 15
    Bed channel count : 1 channel
    Bed channel configuration : LFE

    Text #1
    ID : 3
    Format : VobSub
    Muxing mode : zlib
    Codec ID : S_VOBSUB
    Codec ID/Info : Picture based subtitle format used on DVDs
    Duration : 1 h 29 min
    Bit rate : 12.3 kb/s
    Frame rate : 0.271 FPS
    Count of elements : 1454
    Stream size : 7.89 MiB (0%)
    Title : Sub Thai 1080p
    Language : Thai
    Default : No
    Forced : No

    Text #2
    ID : 4
    Format : UTF-8
    Codec ID : S_TEXT/UTF8
    Codec ID/Info : UTF-8 Plain Text
    Duration : 1 h 29 min
    Bit rate : 127 b/s
    Frame rate : 0.271 FPS
    Count of elements : 1454
    Stream size : 83.4 KiB (0%)
    Title : Sub Thai SRT
    Language : Thai
    Default : No
    Forced : No

    Text #3
    ID : 5
    Format : PGS
    Muxing mode : zlib
    Codec ID : S_HDMV/PGS
    Codec ID/Info : Picture based subtitle format used on BDs/HD-DVDs
    Duration : 1 h 29 min
    Bit rate : 38.9 kb/s
    Frame rate : 0.542 FPS
    Count of elements : 2908
    Stream size : 24.9 MiB (1%)
    Title : Sub Thai PGS
    Language : Thai
    Default : Yes
    Forced : No

    Text #4
    ID : 6
    Format : UTF-8
    Codec ID : S_TEXT/UTF8
    Codec ID/Info : UTF-8 Plain Text
    Duration : 1 h 30 min
    Bit rate : 58 b/s
    Frame rate : 0.290 FPS
    Count of elements : 1583
    Stream size : 39.2 KiB (0%)
    Title : Sub English SRT
    Language : English
    Default : No
    Forced : No







    - ͹ѹ ⾸٧


    Cocaine.Bear.2023.DDP5.1.Atmos_(2).mkv
    http://www.filecondo.com/dl.php?f=Cfd1931PCN2t

    6.2 GB

    Cocaine_Bear_(2023).mkv
    http://www.filecondo.com/dl.php?f=6438fa1PCMXQ

    4.61 GB

    Cocaine_Bear_(2023)_դ[email protected]
    http://www.filecondo.com/dl.php?f=Y362cb1PCMQP

    2.2 GB

  2. The Following User Says Thank You to Duckload.us For This Useful Post:

    Wesker_TOT (03-17-2023)

  3. #2
    Senior Member
    Ѥ
    Dec 2013
    ʵ
    4,840
    Thanks
    6,732
    Thanked 0 Times in 0 Posts
    ͺسѺ...

šз

Users Browsing this Thread

㹢й 1 ҹ١з. (0 Ҫԡ 1 )

     

ʵͤ

  • ҹ ö 駡з
  • ҹ ö ͺз
  • ҹ ö
  • ҹ ö 䢢ͤʵ