+ ตอบกลับกระทู้
สรุปผลการค้นหา 1 ถึง 1 จากทั้งหมด 1
  1. #1
    Administrators รูปส่วนตัว Duckload.us
    สมัครเมื่อ
    Dec 2010
    โพสต์
    151,817
    Thanks
    7
    Thanked 158,780 Times in 69,420 Posts

    Lightbulb [ฝรั่ง]-John Wick 4 (2023) แรงกว่านรก 4 V2 [เสียง:อังกฤษ-ไทยโรง]-WEB-DL.H.264.1080p. [หนังซูม]-[พากย์ไทยโรง]




    John Wick 4 (2023) จอห์น วิค แรงกว่านรก 4 หลังจาก จอห์น วิค (คีอานู รีฟส์) เอาตัวรอดจากนักฆ่าและการตามล่าจากสภาสูงมาได้ เขาได้ค้นพบว่าหนทางรอดเดียวที่จะทำให้ชีวิตเขาเป็นอ ิสระ คือการต้องกลับมาเผชิญหน้ากับชะตากรรมที่รอเขาอยู่แล ะเป้าหมายเดียวคือต้องโค่นสภาสูงให้สำเร็จ โดยครั้งนี้เขาต้องรับมือกับศัตรูอำมหิตรายใหม่ที่มี อิทธิพลกว้างขวางไปทั่ววงศ์วานนักฆ่าทั้งโลก ผู้พร้อมจะเปลี่ยนมิตรให้กลายเป็นศัตรู เปลี่ยนลมหายใจให้กลายเป็นร่างไร้วิญญาณ เปิดฉากการตามล่าครั้งใหม่ที่กินอาณาเขตแค้นไปถึง 3 ทวีป ทั้งในนิวยอร์ก ปารีส เบอร์ลิน และโอซาก้า


    Video
    ID : 1
    Format : AVC
    Format/Info : Advanced Video Codec
    Format profile : High@L4
    Format settings, CABAC : Yes
    Format settings, RefFrames : 4 frames
    Codec ID : V_MPEG4/ISO/AVC
    Duration : 2 h 41 min
    Bit rate : 2 505 kb/s
    Width : 1 920 pixels
    Height : 840 pixels
    Display aspect ratio : 2.25:1
    Frame rate mode : Constant
    Frame rate : 24.000 FPS
    Color space : YUV
    Chroma subsampling : 4:2:0
    Bit depth : 8 bits
    Scan type : Progressive
    Bits/(Pixel*Frame) : 0.065
    Stream size : 2.82 GiB (84%)
    Writing library : x264 core 157 r2969 d4099dd
    Encoding settings : cabac=1 / ref=3 / deblock=1:-1:-1 / analyse=0x3:0x133 / me=umh / subme=7 / psy=1 / psy_rd=1.00:0.15 / mixed_ref=1 / me_range=32 / chroma_me=1 / trellis=2 / 8x8dct=1 / cqm=0 / deadzone=21,11 / fast_pskip=1 / chroma_qp_offset=-3 / threads=24 / lookahead_threads=4 / sliced_threads=0 / nr=0 / decimate=1 / interlaced=0 / bluray_compat=0 / constrained_intra=0 / bframes=3 / b_pyramid=2 / b_adapt=2 / b_bias=0 / direct=1 / weightb=1 / open_gop=0 / weightp=2 / keyint=240 / keyint_min=24 / scenecut=40 / intra_refresh=0 / rc_lookahead=40 / rc=2pass / mbtree=1 / bitrate=2505 / ratetol=1.0 / qcomp=0.60 / qpmin=0 / qpmax=69 / qpstep=4 / cplxblur=20.0 / qblur=0.5 / vbv_maxrate=25000 / vbv_bufsize=31250 / nal_hrd=none / filler=0 / ip_ratio=1.40 / aq=1:1.00
    Default : Yes
    Forced : No

    Audio #1
    ID : 2
    Format : AC-3
    Format/Info : Audio Coding 3
    Format settings, Endianness : Big
    Codec ID : A_AC3
    Duration : 2 h 41 min
    Bit rate mode : Constant
    Bit rate : 320 kb/s
    Channel(s) : 2 channels
    Channel positions : Front: L R
    Sampling rate : 48.0 kHz
    Frame rate : 31.250 FPS (1536 SPF)
    Bit depth : 16 bits
    Compression mode : Lossy
    Stream size : 369 MiB (11%)
    Language : Thai
    Service kind : Complete Main
    Default : Yes
    Forced : No

    Audio #2
    ID : 3
    Format : AC-3
    Format/Info : Audio Coding 3
    Format settings, Endianness : Big
    Codec ID : A_AC3
    Duration : 2 h 41 min
    Bit rate mode : Constant
    Bit rate : 160 kb/s
    Channel(s) : 2 channels
    Channel positions : Front: L R
    Sampling rate : 48.0 kHz
    Frame rate : 31.250 FPS (1536 SPF)
    Bit depth : 16 bits
    Compression mode : Lossy
    Stream size : 184 MiB (5%)
    Language : English
    Service kind : Complete Main
    Default : No
    Forced : No




    John.Wick.Chapter.4.1080p.V2.Cam.Modified_By_mxn.m kv
    http://www.filecondo.com/dl.php?f=oda2ee1PGhPS

    3.61 GB

  2. The Following 2 Users Say Thank You to Duckload.us For This Useful Post:

    lonin (03-27-2023), petpina2010 (03-28-2023)

+ ตอบกลับกระทู้

ข้อมูลกระทู้

Users Browsing this Thread

ในขณะนี้มี 1 ท่านดูกระทู้อยู่. (0 สมาชิกและ 1 ผู้เยี่ยมชม)

     

กฎการโพสต์ข้อความ

  • ท่าน ไม่สามารถ ตั้งกระทู้ใหม่ได้
  • ท่าน ไม่สามารถ ตอบกระทู้ได้
  • ท่าน ไม่สามารถ แนบไฟล์ได้
  • ท่าน ไม่สามารถ แก้ไขข้อความโพสต์ได้
  • BB code สถานะ เปิด
  • Smilies สถานะ เปิด
  • [IMG] สถานะ เปิด
  • HTML สถานะ ปิด