+ ตอบกลับกระทู้
สรุปผลการค้นหา 1 ถึง 2 จากทั้งหมด 2
  1. #1
    Administrators รูปส่วนตัว Duckload.us
    สมัครเมื่อ
    Dec 2010
    โพสต์
    152,107
    Thanks
    7
    Thanked 159,085 Times in 69,585 Posts

    Lightbulb [เกาหลี]-[AMZN] Confidential Assignment 2: International (2022) จารชนโอปป้า รั่วส์ข้ามโลก-WEB-DL.H.264.1080p. [Master]-[พากย์ไทย/เกาหลี บรรยายไทย]



    การกลับมาของสองคู่หูคู่ฮา 'Confidential Assignment 2' เมื่อ อิมชอลรยอง กลับมาเหยียบแผ่นดินเกาหลีใต้อีกครั้งเพื่อตามหาองค์ กรอาชญากรรมลับที่โหดร้าย และเขาได้กลับมาร่วมมือกับ คังจินแท ที่อาสาทำงานร่วมกับเกาหลีเหนืออีกครั้ง เพื่อที่จะกลับมาทำงานในทีมสืบสวนหลังจากเกิดความผิด พลาดที่ทำให้เขาถูกเด้งมาอยู่แผนกต๋อกต๋อยอย่างแผนกอ าชญากรรมไซเบอร์แทน

    Video
    ID : 1
    Format : AVC
    Format/Info : Advanced Video Codec
    Format profile : High@L4
    Format settings : CABAC / 4 Ref Frames
    Format settings, CABAC : Yes
    Format settings, Reference frames : 4 frames
    Codec ID : V_MPEG4/ISO/AVC
    Duration : 2 h 3 min
    Bit rate : 4 436 kb/s
    Width : 1 920 pixels
    Height : 800 pixels
    Display aspect ratio : 2.40:1
    Frame rate mode : Constant
    Frame rate : 25.000 FPS
    Color space : YUV
    Chroma subsampling : 4:2:0
    Bit depth : 8 bits
    Scan type : Progressive
    Bits/(Pixel*Frame) : 0.116
    Stream size : 3.82 GiB (93%)
    Default : Yes
    Forced : No
    Color range : Limited
    Color primaries : BT.709
    Transfer characteristics : BT.709
    Matrix coefficients : BT.709

    Audio #1
    ID : 2
    Format : AAC LC
    Format/Info : Advanced Audio Codec Low Complexity
    Codec ID : A_AAC-2
    Duration : 2 h 3 min
    Bit rate : 128 kb/s
    Channel(s) : 2 channels
    Channel layout : L R
    Sampling rate : 48.0 kHz
    Frame rate : 46.875 FPS (1024 SPF)
    Compression mode : Lossy
    Stream size : 113 MiB (3%)
    Title : ไทย
    Language : Thai
    Default : Yes
    Forced : No

    Audio #2
    ID : 3
    Format : AAC LC
    Format/Info : Advanced Audio Codec Low Complexity
    Codec ID : A_AAC-2
    Duration : 2 h 3 min
    Bit rate : 192 kb/s
    Channel(s) : 2 channels
    Channel layout : L R
    Sampling rate : 48.0 kHz
    Frame rate : 46.875 FPS (1024 SPF)
    Compression mode : Lossy
    Stream size : 169 MiB (4%)
    Title : 한 국 어
    Language : Korean
    Default : No
    Forced : No

    Text #1
    ID : 4
    Format : UTF-8
    Codec ID : S_TEXT/UTF8
    Codec ID/Info : UTF-8 Plain Text
    Duration : 1 h 59 min
    Bit rate : 50 b/s
    Frame rate : 0.233 FPS
    Count of elements : 1669
    Stream size : 44.5 KiB (0%)
    Title : English
    Language : English
    Default : Yes
    Forced : No

    Text #2
    ID : 5
    Format : UTF-8
    Codec ID : S_TEXT/UTF8
    Codec ID/Info : UTF-8 Plain Text
    Duration : 1 h 59 min
    Bit rate : 122 b/s
    Frame rate : 0.264 FPS
    Count of elements : 1902
    Stream size : 107 KiB (0%)
    Title : ไทย
    Language : Thai
    Default : No
    Forced : No

    Text #3
    ID : 6
    Format : UTF-8
    Codec ID : S_TEXT/UTF8
    Codec ID/Info : UTF-8 Plain Text
    Duration : 1 h 18 min
    Bit rate : 0 b/s
    Frame rate : 0.001 FPS
    Count of elements : 3
    Stream size : 186 Bytes (0%)
    Title : ไทย forced narrative
    Language : Thai
    Default : No
    Forced : No

    Text #4
    ID : 7
    Format : UTF-8
    Codec ID : S_TEXT/UTF8
    Codec ID/Info : UTF-8 Plain Text
    Duration : 1 h 18 min
    Bit rate : 0 b/s
    Frame rate : 0.001 FPS
    Count of elements : 3
    Stream size : 70.0 Bytes (0%)
    Title : English forced narrative
    Language : English
    Default : No
    Forced : No





    Confidential.Assignment.2.International.2022.1080. x264.WEB-DL.AMZN-MESSI.mkv
    http://www.filecondo.com/dl.php?f=bf70441PGSAV

    4.4 GB

  2. The Following 2 Users Say Thank You to Duckload.us For This Useful Post:

    Jodz14 (04-03-2023), Wesker_TOT (03-30-2023)

  3. #2
    Senior Member
    สมัครเมื่อ
    Dec 2013
    โพสต์
    6,282
    Thanks
    8,265
    Thanked 0 Times in 0 Posts
    ขอบคุณครับ...

+ ตอบกลับกระทู้

ข้อมูลกระทู้

Users Browsing this Thread

ในขณะนี้มี 1 ท่านดูกระทู้อยู่. (0 สมาชิกและ 1 ผู้เยี่ยมชม)

     

กฎการโพสต์ข้อความ

  • ท่าน ไม่สามารถ ตั้งกระทู้ใหม่ได้
  • ท่าน ไม่สามารถ ตอบกระทู้ได้
  • ท่าน ไม่สามารถ แนบไฟล์ได้
  • ท่าน ไม่สามารถ แก้ไขข้อความโพสต์ได้
  • BB code สถานะ เปิด
  • Smilies สถานะ เปิด
  • [IMG] สถานะ เปิด
  • HTML สถานะ ปิด