+ ตอบกลับกระทู้
สรุปผลการค้นหา 1 ถึง 1 จากทั้งหมด 1
  1. #1
    Administrators รูปส่วนตัว Duckload.us
    สมัครเมื่อ
    Dec 2010
    โพสต์
    150,748
    Thanks
    7
    Thanked 158,010 Times in 68,987 Posts

    Lightbulb [ฝรั่ง]-[* ใหม่ร้อนๆ! +เสียงไทยโรง 5.1-ซับไทย *] The Super Mario Bros. Movie (2023) : เดอะ ซูเปอร์มาริโอบราเธอร์ส มูฟวี่ • [พากย์ไทยโรง 5.1 + เสียงอังกฤษ DD5.1] • [บรรยาย: ไทย-อังกฤษ + ซับ PGS คมชัด] • [* WEB-DL 1080p! *]



    ••• The.Super.Mario.Bros.Movie.2023.1080p.WEB-DL.H265.THR •••
    เสียง : เสียงอังกฤษ 5.1 + พากย์ไทยโรง 5.1 บรรยาย : ไทย + อังกฤษ

    The Super Mario Bros. Movie กำกับโดย แอรอน ฮอร์วาธ และไมเคิล เยเลนิก (จาก Teen Titans Go!, Teen Titans Go! To the Movies) บทภาพยนตร์โดย แมทธิว โฟเกิล ((The LEGO Movie 2: The Second Part, Minions: The Rise of Gru) ภาพยนตร์ให้เสียงพากย์โดย คริส แพรตต์ พากย์เสียง มาริโอ, อันยา เทย์เลอร์-จอย พากย์เสียง เจ้าหญิงพีช, ชาร์ลี เดย์ พากย์เสียง ลุยจิ, แจ็ค แบล็ค พากย์เสียง บาวเซอร์, คีแกน-ไมเคิล คีย์ พากย์เสียง โทด, เซ็ธ โรเกน พากย์เสียง ดองกี คอง, เฟรด อาร์มิเซน พากย์เสียง แครนกี คอง, เควิน ไมเคิล ริชาร์ดสัน พากย์เสียง คาเม็ก และ เซบาสเตียน มานิคาลโก พากย์เสียง สไปค์ ภาพยนตร์อำนวยการสร้างโดย ผู้ก่อตั้ง และซีอีโอ อิลลูมิเนชั่น คริส เมเลดันดรี และชิเงรุ มิยาโมโต จาก นินเทนโด ภาพยนตร์ร่วมทุนระหว่างยูนิเวอร์แซล พิคเจอร์สและนินเทนโด จัดจำหน่ายทั่วโลกโดย ยูนิเวอร์แซล พิคเจอร์ส!

    Format : Matroska
    Format version : Version 4
    File size : 4.59 GiB
    Duration : 1 h 28 min
    Overall bit rate : 7 414 kb/s
    Frame rate : 25.000 FPS
    Movie name : The.Super.Mario.Bros.Movie.2023.1080p.WEB-DL.H265.THR_Mr.Captain@Siambit

    Video
    ID : 1
    Format : HEVC
    Format/Info : High Efficiency Video Coding
    Format profile : Main 10@L4@Main
    Codec ID : V_MPEGH/ISO/HEVC
    Duration : 1 h 28 min
    Bit rate : 6 614 kb/s
    Width : 1 920 pixels
    Height : 804 pixels
    Display aspect ratio : 2.40:1
    Frame rate mode : Constant
    Frame rate : 25.000 FPS
    Color space : YUV
    Chroma subsampling : 4:2:0
    Bit depth : 10 bits
    Bits/(Pixel*Frame) : 0.171
    Stream size : 4.10 GiB (89%)
    Title : The.Super.Mario.Bros.Movie.2023.1080p.WEB-DL.H265.THR_Mr.Captain@Siambit
    Language : English
    Default : Yes
    Forced : No

    Audio #1
    ID : 2
    Format : AC-3
    Format/Info : Audio Coding 3
    Commercial name : Dolby Digital
    Codec ID : A_AC3
    Duration : 1 h 28 min
    Bit rate mode : Constant
    Bit rate : 384 kb/s
    Channel(s) : 6 channels
    Channel layout : L R C LFE Ls Rs
    Sampling rate : 48.0 kHz
    Frame rate : 31.250 FPS (1536 SPF)
    Compression mode : Lossy
    Stream size : 244 MiB (5%)
    Title : ThaiRong 5.1
    Language : Thai
    Service kind : Complete Main
    Default : Yes
    Forced : Yes

    Audio #2
    ID : 3
    Format : AC-3
    Format/Info : Audio Coding 3
    Commercial name : Dolby Digital
    Codec ID : A_AC3
    Duration : 1 h 28 min
    Bit rate mode : Constant
    Bit rate : 384 kb/s
    Channel(s) : 6 channels
    Channel layout : L R C LFE Ls Rs
    Sampling rate : 48.0 kHz
    Frame rate : 31.250 FPS (1536 SPF)
    Compression mode : Lossy
    Stream size : 244 MiB (5%)
    Title : English DD5.1
    Language : English
    Service kind : Complete Main
    Default : No
    Forced : No

    Text #1
    ID : 4
    Format : UTF-8
    Codec ID : S_TEXT/UTF8
    Codec ID/Info : UTF-8 Plain Text
    Duration : 1 h 28 min
    Bit rate : 75 b/s
    Frame rate : 0.174 FPS
    Count of elements : 923
    Stream size : 49.3 KiB (0%)
    Title : Thai SRT By อนันต์ โพธิสูง
    Language : Thai
    Default : No
    Forced : No

    Text #2
    ID : 5
    Format : PGS
    Codec ID : S_HDMV/PGS
    Codec ID/Info : Picture based subtitle format used on BDs/HD-DVDs
    Duration : 1 h 28 min
    Bit rate : 18.7 kb/s
    Frame rate : 0.347 FPS
    Count of elements : 1846
    Stream size : 11.8 MiB (0%)
    Title : Thai PGS
    Language : Thai
    Default : No
    Forced : No

    Text #3
    ID : 6
    Format : VobSub
    Codec ID : S_VOBSUB
    Codec ID/Info : Picture based subtitle format used on DVDs
    Duration : 1 h 28 min
    Bit rate : 5 925 b/s
    Frame rate : 0.173 FPS
    Count of elements : 919
    Stream size : 3.75 MiB (0%)
    Title : Thai 1080p
    Language : Thai
    Default : No
    Forced : No

    Text #4
    ID : 7
    Format : VobSub
    Codec ID : S_VOBSUB
    Codec ID/Info : Picture based subtitle format used on DVDs
    Duration : 1 h 28 min
    Bit rate : 3 193 b/s
    Frame rate : 0.173 FPS
    Count of elements : 919
    Stream size : 2.02 MiB (0%)
    Title : Thai 720p
    Language : Thai
    Default : No
    Forced : No

    Text #5
    ID : 8
    Format : VobSub
    Codec ID : S_VOBSUB
    Codec ID/Info : Picture based subtitle format used on DVDs
    Duration : 1 h 28 min
    Bit rate : 1 664 b/s
    Frame rate : 0.173 FPS
    Count of elements : 919
    Stream size : 1.05 MiB (0%)
    Title : Thai 480p
    Language : Thai
    Default : No
    Forced : No

    Text #6
    ID : 9
    Format : UTF-8
    Codec ID : S_TEXT/UTF8
    Codec ID/Info : UTF-8 Plain Text
    Duration : 1 h 28 min
    Bit rate : 36 b/s
    Frame rate : 0.187 FPS
    Count of elements : 987
    Stream size : 23.6 KiB (0%)
    Title : English SRT
    Language : English
    Default : No
    Forced : No

    Format : Matroska
    Format version : Version 4
    File size : 4.59 GiB
    Duration : 1 h 28 min
    Overall bit rate : 7 414 kb/s
    Frame rate : 25.000 FPS
    Movie name : The.Super.Mario.Bros.Movie.2023.1080p.WEB-DL.H265.THR_Mr.Captain@Siambit

    Video
    ID : 1
    Format : HEVC
    Format/Info : High Efficiency Video Coding
    Format profile : Main 10@L4@Main
    Codec ID : V_MPEGH/ISO/HEVC
    Duration : 1 h 28 min
    Bit rate : 6 614 kb/s
    Width : 1 920 pixels
    Height : 804 pixels
    Display aspect ratio : 2.40:1
    Frame rate mode : Constant
    Frame rate : 25.000 FPS
    Color space : YUV
    Chroma subsampling : 4:2:0
    Bit depth : 10 bits
    Bits/(Pixel*Frame) : 0.171
    Stream size : 4.10 GiB (89%)
    Title : The.Super.Mario.Bros.Movie.2023.1080p.WEB-DL.H265.THR_Mr.Captain@Siambit
    Language : English
    Default : Yes
    Forced : No

    Audio #1
    ID : 2
    Format : AC-3
    Format/Info : Audio Coding 3
    Commercial name : Dolby Digital
    Codec ID : A_AC3
    Duration : 1 h 28 min
    Bit rate mode : Constant
    Bit rate : 384 kb/s
    Channel(s) : 6 channels
    Channel layout : L R C LFE Ls Rs
    Sampling rate : 48.0 kHz
    Frame rate : 31.250 FPS (1536 SPF)
    Compression mode : Lossy
    Stream size : 244 MiB (5%)
    Title : ThaiRong 5.1
    Language : Thai
    Service kind : Complete Main
    Default : Yes
    Forced : Yes

    Audio #2
    ID : 3
    Format : AC-3
    Format/Info : Audio Coding 3
    Commercial name : Dolby Digital
    Codec ID : A_AC3
    Duration : 1 h 28 min
    Bit rate mode : Constant
    Bit rate : 384 kb/s
    Channel(s) : 6 channels
    Channel layout : L R C LFE Ls Rs
    Sampling rate : 48.0 kHz
    Frame rate : 31.250 FPS (1536 SPF)
    Compression mode : Lossy
    Stream size : 244 MiB (5%)
    Title : English DD5.1
    Language : English
    Service kind : Complete Main
    Default : No
    Forced : No

    Text #1
    ID : 4
    Format : UTF-8
    Codec ID : S_TEXT/UTF8
    Codec ID/Info : UTF-8 Plain Text
    Duration : 1 h 28 min
    Bit rate : 75 b/s
    Frame rate : 0.174 FPS
    Count of elements : 923
    Stream size : 49.3 KiB (0%)
    Title : Thai SRT By อนันต์ โพธิสูง
    Language : Thai
    Default : No
    Forced : No

    Text #2
    ID : 5
    Format : PGS
    Codec ID : S_HDMV/PGS
    Codec ID/Info : Picture based subtitle format used on BDs/HD-DVDs
    Duration : 1 h 28 min
    Bit rate : 18.7 kb/s
    Frame rate : 0.347 FPS
    Count of elements : 1846
    Stream size : 11.8 MiB (0%)
    Title : Thai PGS
    Language : Thai
    Default : No
    Forced : No

    Text #3
    ID : 6
    Format : VobSub
    Codec ID : S_VOBSUB
    Codec ID/Info : Picture based subtitle format used on DVDs
    Duration : 1 h 28 min
    Bit rate : 5 925 b/s
    Frame rate : 0.173 FPS
    Count of elements : 919
    Stream size : 3.75 MiB (0%)
    Title : Thai 1080p
    Language : Thai
    Default : No
    Forced : No

    Text #4
    ID : 7
    Format : VobSub
    Codec ID : S_VOBSUB
    Codec ID/Info : Picture based subtitle format used on DVDs
    Duration : 1 h 28 min
    Bit rate : 3 193 b/s
    Frame rate : 0.173 FPS
    Count of elements : 919
    Stream size : 2.02 MiB (0%)
    Title : Thai 720p
    Language : Thai
    Default : No
    Forced : No

    Text #5
    ID : 8
    Format : VobSub
    Codec ID : S_VOBSUB
    Codec ID/Info : Picture based subtitle format used on DVDs
    Duration : 1 h 28 min
    Bit rate : 1 664 b/s
    Frame rate : 0.173 FPS
    Count of elements : 919
    Stream size : 1.05 MiB (0%)
    Title : Thai 480p
    Language : Thai
    Default : No
    Forced : No

    Text #6
    ID : 9
    Format : UTF-8
    Codec ID : S_TEXT/UTF8
    Codec ID/Info : UTF-8 Plain Text
    Duration : 1 h 28 min
    Bit rate : 36 b/s
    Frame rate : 0.187 FPS
    Count of elements : 987
    Stream size : 23.6 KiB (0%)
    Title : English SRT
    Language : English
    Default : No
    Forced : No


    The.Super.Mario.Bros.Movie.2023.1080p.WEB-DL.H265.THR_Mr.Captain.mkv
    http://www.filecondo.com/dl.php?f=U767dc1PYwu3

    4.93 GB

  2. The Following User Says Thank You to Duckload.us For This Useful Post:

    Eternallove (06-02-2023)

+ ตอบกลับกระทู้

ข้อมูลกระทู้

Users Browsing this Thread

ในขณะนี้มี 1 ท่านดูกระทู้อยู่. (0 สมาชิกและ 1 ผู้เยี่ยมชม)

     

กฎการโพสต์ข้อความ

  • ท่าน ไม่สามารถ ตั้งกระทู้ใหม่ได้
  • ท่าน ไม่สามารถ ตอบกระทู้ได้
  • ท่าน ไม่สามารถ แนบไฟล์ได้
  • ท่าน ไม่สามารถ แก้ไขข้อความโพสต์ได้
  • BB code สถานะ เปิด
  • Smilies สถานะ เปิด
  • [IMG] สถานะ เปิด
  • HTML สถานะ ปิด