+ ตอบกลับกระทู้
สรุปผลการค้นหา 1 ถึง 1 จากทั้งหมด 1
  1. #1
    Administrators รูปส่วนตัว Duckload.us
    สมัครเมื่อ
    Dec 2010
    โพสต์
    151,817
    Thanks
    7
    Thanked 158,780 Times in 69,420 Posts

    Lightbulb [ฝรั่ง]-ใหม่[* IMAX DSNP WEB-DL 1080p! *] Ant-Man and the Wasp: Quantumania (2023) : แอนท์-แมน และ เดอะ วอสพ์: ตะลุยมิติควอนตัม [เสียงอังกฤษ DDP5.1 Atmos + พากย์ไทย Master] [บรรยาย: ไทย-อังกฤษ + ซับ PGS คมชัด From Disney+]



    ••• Ant.Man.and.the.Wasp.Quantumania.2023.IMAX.1080p.D SNP.WEB-DL.DDP5.1.Atmos.H.264.THM •••
    เสียง : พากย์ไทย Master + เสียงอังกฤษ บรรยาย : ไทย + อังกฤษ

    Antman and wasp quantumania คู่หูซูเปอร์ฮีโร่ สก็อตต์ แลง (พอล รัดด์) และ โฮป แวน ไดน์ (อีแวนเจลีน ลิลลี่) หวนคืนสู่การผจญอีกครั้งในฐานะ แอนท์-แมน และ เดอะ วอสพ์ พวกเขาต้องร่วมมือกับพ่อแม่ของโฮป แฮงค์ พิม (ไมเคิล ดักลาส) และ เจเน็ต แวน ไดน์ (มิเชลล์ ไฟฟ์เฟอร์) และลูกสาวของสก็อตต์ แคสซี่ แลง (แคทริน นิวตัน) การร่วมมือกันครั้งนี้ทำให้พวกเขาได้เข้าไปสำรวจมิติ ควอนตัม พบเจอกับสิ่งมีชีวิตใหม่ ๆ สุดแปลก และ ร่วมหัวจมท้ายไปในการผจญภัยที่จะผลักดันพวกเขาไปจนเห นือขีดจำกัดที่คิดว่าจะทำได้ กำกับโดย เพย์ตัน รีด อำนวยการสร้างโดย เควิน ไฟกีและ สตีเฟ่น บรูซาร์ด “แอนท์-แมน และเดอะ วอสพ์: ตะลุยมิติควอนตัม” ยังได้โจนาธาน เมเจอร์ส มาร่วมแสดงเป็น แคง เดวิด แดสท์มัลแชน เป็น เว็บ เคที โอไบรอัน เป็น เจนทอร์รา วิลเลียม แจ็กสัน ฮาร์เปอร์ เป็น ควาซ และ บิลล์ เมอร์เรย์ เป็น ลอร์ดไครลาร์ ภาพยนตร์การผจญเหนือจินตนาการจะฉายในวันที่ 15 กุมภาพันธ์ในโรงภาพยนตร์!

    Format : Matroska
    Format version : Version 4
    File size : 6.47 GiB
    Duration : 2 h 4 min
    Overall bit rate : 7 431 kb/s
    Frame rate : 23.976 FPS
    Movie name : Ant.Man.and.the.Wasp.Quantumania.2023.IMAX.1080p.D SNP.WEB-DL.DDP5.1.Atmos.H.264.THM_Mr.Captain@Siambit

    Video
    ID : 1
    Format : AVC
    Format/Info : Advanced Video Codec
    Format profile : High@L4
    Format settings : CABAC / 4 Ref Frames
    Format settings, CABAC : Yes
    Format settings, Reference : 4 frames
    Codec ID : V_MPEG4/ISO/AVC
    Duration : 2 h 4 min
    Bit rate mode : Variable
    Bit rate : 6 217 kb/s
    Maximum bit rate : 12.7 Mb/s
    Width : 1 920 pixels
    Height : 1 080 pixels
    Display aspect ratio : 16:9
    Frame rate mode : Constant
    Frame rate : 23.976 (24000/1001) FPS
    Color space : YUV
    Chroma subsampling : 4:2:0
    Bit depth : 8 bits
    Scan type : Progressive
    Bits/(Pixel*Frame) : 0.125
    Stream size : 5.41 GiB (84%)
    Title : Ant.Man.and.the.Wasp.Quantumania.2023.IMAX.1080p.D SNP.WEB-DL.DDP5.1.Atmos.H.264.THM_Mr.Captain@Siambit
    Language : English
    Default : Yes
    Forced : No
    Color range : Limited
    Color primaries : BT.709
    Transfer characteristics : BT.709
    Matrix coefficients : BT.709

    Audio #1
    ID : 2
    Format : AC-3
    Format/Info : Audio Coding 3
    Commercial name : Dolby Digital
    Codec ID : A_AC3
    Duration : 2 h 4 min
    Bit rate mode : Constant
    Bit rate : 384 kb/s
    Channel(s) : 2 channels
    Channel layout : L R
    Sampling rate : 48.0 kHz
    Frame rate : 31.250 FPS (1536 SPF)
    Compression mode : Lossy
    Stream size : 342 MiB (5%)
    Title : Thai Master From Disney+
    Language : Thai
    Service kind : Complete Main
    Default : Yes
    Forced : No

    Audio #2
    ID : 3
    Format : E-AC-3 JOC
    Format/Info : Enhanced AC-3 with Joint Object Coding
    Commercial name : Dolby Digital Plus with Dolby Atmos
    Codec ID : A_EAC3
    Duration : 2 h 4 min
    Bit rate mode : Constant
    Bit rate : 768 kb/s
    Channel(s) : 6 channels
    Channel layout : L R C LFE Ls Rs
    Sampling rate : 48.0 kHz
    Frame rate : 31.250 FPS (1536 SPF)
    Compression mode : Lossy
    Stream size : 684 MiB (10%)
    Title : English DDP5.1 Atmos
    Language : English
    Service kind : Complete Main
    Default : Yes
    Forced : No
    Complexity index : 16
    Number of dynamic objects : 15
    Bed channel count : 1 channel
    Bed channel configuration : LFE

    Text #1
    ID : 4
    Format : UTF-8
    Codec ID : S_TEXT/UTF8
    Codec ID/Info : UTF-8 Plain Text
    Duration : 2 h 1 min
    Bit rate : 88 b/s
    Frame rate : 0.211 FPS
    Count of elements : 1542
    Stream size : 78.5 KiB (0%)
    Title : Thai SRT
    Language : Thai
    Default : No
    Forced : No

    Text #2
    ID : 5
    Format : PGS
    Codec ID : S_HDMV/PGS
    Codec ID/Info : Picture based subtitle format used on BDs/HD-DVDs
    Duration : 2 h 1 min
    Bit rate : 21.8 kb/s
    Frame rate : 0.422 FPS
    Count of elements : 3084
    Stream size : 19.0 MiB (0%)
    Title : Thai PGS Droid Sans
    Language : Thai
    Default : No
    Forced : No

    Text #3
    ID : 6
    Format : PGS
    Codec ID : S_HDMV/PGS
    Codec ID/Info : Picture based subtitle format used on BDs/HD-DVDs
    Duration : 2 h 1 min
    Bit rate : 20.6 kb/s
    Frame rate : 0.422 FPS
    Count of elements : 3084
    Stream size : 17.9 MiB (0%)
    Title : Thai PGS Angsana UPC
    Language : Thai
    Default : No
    Forced : No

    Text #4
    ID : 7
    Format : VobSub
    Codec ID : S_VOBSUB
    Codec ID/Info : Picture based subtitle format used on DVDs
    Duration : 2 h 1 min
    Bit rate : 4 996 b/s
    Frame rate : 0.210 FPS
    Count of elements : 1536
    Stream size : 4.35 MiB (0%)
    Title : Thai 1080p Droid Sans
    Language : Thai
    Default : No
    Forced : No

    Text #5
    ID : 8
    Format : VobSub
    Codec ID : S_VOBSUB
    Codec ID/Info : Picture based subtitle format used on DVDs
    Duration : 2 h 1 min
    Bit rate : 2 779 b/s
    Frame rate : 0.210 FPS
    Count of elements : 1536
    Stream size : 2.42 MiB (0%)
    Title : Thai 720p Droid Sans
    Language : Thai
    Default : No
    Forced : No

    Text #6
    ID : 9
    Format : VobSub
    Codec ID : S_VOBSUB
    Codec ID/Info : Picture based subtitle format used on DVDs
    Duration : 2 h 1 min
    Bit rate : 1 433 b/s
    Frame rate : 0.210 FPS
    Count of elements : 1536
    Stream size : 1.25 MiB (0%)
    Title : Thai 480p Droid Sans
    Language : Thai
    Default : No
    Forced : No

    Text #7
    ID : 10
    Format : VobSub
    Codec ID : S_VOBSUB
    Codec ID/Info : Picture based subtitle format used on DVDs
    Duration : 2 h 1 min
    Bit rate : 4 794 b/s
    Frame rate : 0.210 FPS
    Count of elements : 1536
    Stream size : 4.17 MiB (0%)
    Title : Thai 1080p Angsana UPC
    Language : Thai
    Default : No
    Forced : No

    Text #8
    ID : 11
    Format : VobSub
    Codec ID : S_VOBSUB
    Codec ID/Info : Picture based subtitle format used on DVDs
    Duration : 2 h 1 min
    Bit rate : 2 659 b/s
    Frame rate : 0.210 FPS
    Count of elements : 1536
    Stream size : 2.32 MiB (0%)
    Title : Thai 720p Angsana UPC
    Language : Thai
    Default : No
    Forced : No

    Text #9
    ID : 12
    Format : VobSub
    Codec ID : S_VOBSUB
    Codec ID/Info : Picture based subtitle format used on DVDs
    Duration : 2 h 1 min
    Bit rate : 1 372 b/s
    Frame rate : 0.210 FPS
    Count of elements : 1536
    Stream size : 1.19 MiB (0%)
    Title : Thai 480p Angsana UPC
    Language : Thai
    Default : No
    Forced : No

    Text #10
    ID : 13
    Format : UTF-8
    Codec ID : S_TEXT/UTF8
    Codec ID/Info : UTF-8 Plain Text
    Duration : 2 h 3 min
    Bit rate : 55 b/s
    Frame rate : 0.291 FPS
    Count of elements : 2158
    Stream size : 50.2 KiB (0%)
    Language : English
    Default : No
    Forced : No

    Menu
    01:53:37.192 : en:Credits

    Ant.Man.and.the.Wasp.Quantumania.2023.IMAX.1080p.M r.Captain.mkv
    http://www.filecondo.com/dl.php?f=h75c0f1Q05X5

    6.94 GB

  2. The Following User Says Thank You to Duckload.us For This Useful Post:

    mettset (05-23-2023)

+ ตอบกลับกระทู้

ข้อมูลกระทู้

Users Browsing this Thread

ในขณะนี้มี 1 ท่านดูกระทู้อยู่. (0 สมาชิกและ 1 ผู้เยี่ยมชม)

     

กฎการโพสต์ข้อความ

  • ท่าน ไม่สามารถ ตั้งกระทู้ใหม่ได้
  • ท่าน ไม่สามารถ ตอบกระทู้ได้
  • ท่าน ไม่สามารถ แนบไฟล์ได้
  • ท่าน ไม่สามารถ แก้ไขข้อความโพสต์ได้
  • BB code สถานะ เปิด
  • Smilies สถานะ เปิด
  • [IMG] สถานะ เปิด
  • HTML สถานะ ปิด