+ ตอบกลับกระทู้
สรุปผลการค้นหา 1 ถึง 2 จากทั้งหมด 2
  1. #1
    Administrators รูปส่วนตัว Duckload.us
    สมัครเมื่อ
    Dec 2010
    โพสต์
    151,817
    Thanks
    7
    Thanked 158,780 Times in 69,420 Posts

    Lightbulb [จีน]The Battle at Lake Changjin 2 _Water Gate Bridge (2022) ยุทธการยึดสมรภูมิเดือด 2 (Sound:Chi/Thai Master)[SUB:ไทย/อังกฤษ]



    หลังจากพวกเขาคว้าชัยชนะจากยุทธภูมิทะเลสาบฉางจินมาไ ด้ ส่งผลให้กองทัพสหรัฐฯ ตัดสินใจถอนกำลัง โดยเส้นทางเดียวที่สามารถใช้ได้คือการเดินทางผ่านสะพ านสุ่ยเหมินเพื่อไปยังท่าเรือฮังนัม เบื้องบนจึงมีคำสั่งให้กองร้อยเจ็ดภายใต้การนำทัพของ อู่เชียนหลี่ (อู๋จิง) ระเบิดสะพานสุ่ยเหมินเพื่อตัดทางถอนกำลังของทหารสหรั ฐฯ ทำให้ อู่เชียนหลี่ อู่ว่านหลี่ (อี้หยางเชียนซี) และเหล่ากองร้อยเจ็ดต้องเร่งแข่งกับเวลาและความหนาวเ หน็บในการทำภารกิจสำคัญ โดยที่พวกเขารู้ดีแก่ใจว่าการสู้ศึกกับกองทัพสหรัฐที ่มียุทโธปกรณ์ดีที่สุดในโลกอาจนำมาซึ่งความตายได้ทุก ขณะ แต่เพื่อปกป้องมาตุภูมิอันเป็นที่รัก พวกเขาจึงเข้าต่อสู้อย่างกล้าหาญด้วยจิตวิญญาณแห่งทห ารกล้า บทสรุปของสมรภูมิสะพานสุ่ยเหมินจะจบลงเช่นไร


    Format : Matroska

    Format version : Version 4

    File size : 6.37 GiB

    Duration : 2 h 29 min

    Overall bit rate : 6 095 kb/s

    Frame rate : 24.000 FPS

    Movie name : The Battle at Lake Changjin 2 - Water Gate Bridge (2022)_©GOLD CUP™_WWW.TT-TORRENT.COM

    Video #1

    ID : 1

    Format : AVC

    Format/Info : Advanced Video Codec

    Format profile : Main@L4

    Format settings : CABAC / 1 Ref Frames

    Format settings, CABAC : Yes

    Format settings, Reference : 1 frame

    Format settings, GOP : M=1, N=25

    Codec ID : V_MPEG4/ISO/AVC

    Duration : 2 h 29 min

    Bit rate mode : Constant

    Bit rate : 2 750 kb/s

    Width : 1 920 pixels

    Height : 816 pixels

    Display aspect ratio : 2.35:1

    Frame rate mode : Constant

    Frame rate : 24.000 FPS

    Color space : YUV

    Chroma subsampling : 4:2:0

    Bit depth : 8 bits

    Scan type : Progressive

    Bits/(Pixel*Frame) : 0.073

    Stream size : 2.87 GiB (45%)

    Title : The Battle at Lake Changjin 2 - Water Gate Bridge (2022)_©GOLD CUP™

    Language : Thai

    Default : Yes

    Forced : No

    Video #2

    ID : 2

    Format : AVC

    Format/Info : Advanced Video Codec

    Format profile : Main@L4

    Format settings : CABAC / 1 Ref Frames

    Format settings, CABAC : Yes

    Format settings, Reference : 1 frame

    Format settings, GOP : M=1, N=25

    Codec ID : V_MPEG4/ISO/AVC

    Duration : 2 h 29 min

    Bit rate mode : Constant

    Bit rate : 2 750 kb/s

    Width : 1 920 pixels

    Height : 816 pixels

    Display aspect ratio : 2.35:1

    Frame rate mode : Constant

    Frame rate : 24.000 FPS

    Color space : YUV

    Chroma subsampling : 4:2:0

    Bit depth : 8 bits

    Scan type : Progressive

    Bits/(Pixel*Frame) : 0.073

    Stream size : 2.87 GiB (45%)

    Language : Chinese

    Default : Yes

    Forced : No

    Audio #1

    ID : 3

    Format : AAC LC

    Format/Info : Advanced Audio Codec Low Complexity

    Codec ID : A_AAC-2

    Duration : 2 h 29 min

    Bit rate : 192 kb/s

    Channel(s) : 2 channels

    Channel layout : L R

    Sampling rate : 44.1 kHz

    Frame rate : 43.066 FPS (1024 SPF)

    Compression mode : Lossy

    Stream size : 209 MiB (3%)

    Title : Th.AAC.2.0_192 kbs

    Language : Thai

    Default : Yes

    Forced : No

    Audio #2

    ID : 4

    Format : AAC LC

    Format/Info : Advanced Audio Codec Low Complexity

    Codec ID : A_AAC-2

    Duration : 2 h 29 min

    Bit rate : 384 kb/s

    Channel(s) : 6 channels

    Channel layout : C L R Ls Rs LFE

    Sampling rate : 48.0 kHz

    Frame rate : 46.875 FPS (1024 SPF)

    Compression mode : Lossy

    Stream size : 411 MiB (6%)

    Title : Chi.AAC_384 kbs.6 channels

    Language : Chinese

    Default : Yes

    Forced : No

    Text

    ID : 5

    Format : PGS

    Muxing mode : zlib

    Codec ID : S_HDMV/PGS

    Codec ID/Info : Picture based subtitle format used on BDs/HD-DVDs

    Duration : 2 h 20 min

    Bit rate : 30.4 kb/s

    Frame rate : 0.349 FPS

    Count of elements : 2938

    Stream size : 30.6 MiB (0%)

    Title : EN.130.3.100.Yellow

    Language : English

    Default : Yes

    Forced : No





    The_Battle_at_Lake_Changjin_2_-_Water_Gate_Bridge_(2022)_GOLD_CUP.mkv
    http://www.filecondo.com/dl.php?f=S9b7471Q0xrS

    6.84 GB

  2. The Following 4 Users Say Thank You to Duckload.us For This Useful Post:

    Jodz14 (05-22-2023), lonin (05-22-2023), noi54 (05-22-2023), Wesker_TOT (05-23-2023)

  3. #2
    Senior Member
    สมัครเมื่อ
    Dec 2013
    โพสต์
    6,241
    Thanks
    8,224
    Thanked 0 Times in 0 Posts
    ขอบคุณครับ...

+ ตอบกลับกระทู้

ข้อมูลกระทู้

Users Browsing this Thread

ในขณะนี้มี 1 ท่านดูกระทู้อยู่. (0 สมาชิกและ 1 ผู้เยี่ยมชม)

     

กฎการโพสต์ข้อความ

  • ท่าน ไม่สามารถ ตั้งกระทู้ใหม่ได้
  • ท่าน ไม่สามารถ ตอบกระทู้ได้
  • ท่าน ไม่สามารถ แนบไฟล์ได้
  • ท่าน ไม่สามารถ แก้ไขข้อความโพสต์ได้
  • BB code สถานะ เปิด
  • Smilies สถานะ เปิด
  • [IMG] สถานะ เปิด
  • HTML สถานะ ปิด