+ ตอบกลับกระทู้
สรุปผลการค้นหา 1 ถึง 1 จากทั้งหมด 1
  1. #1
    Administrators รูปส่วนตัว Duckload.us
    สมัครเมื่อ
    Dec 2010
    โพสต์
    150,748
    Thanks
    7
    Thanked 158,010 Times in 68,987 Posts

    Lightbulb [AMZN] Dungeons & Dragons : Honor Among Thieves (2023) เกียรติยศในหมู่โจร [พากย์:ไทย อังกฤษ][SUB:ไทย อังกฤษ][1080ip]



    โจรพราวสเน่ห์และกลุ่มนักผจญภัยที่ดูท่าจะไปไม่รอดได ้ร่วมมือกันในภารกิจอันยิ่งใหญ่ที่จะตามหาวัตถุโบราณ ที่หายไป แต่ว่าทุกอย่างกลับผิดแผนและกลายเป็นเรื่องอันตราย เมื่อพวกเขาไปมีปัญหากับใครบางคนเข้า
    Quote:
    General
    Unique ID : 151603501482820732810829130070344743299 (0x720DC5B6A16F7E410E0C59E1EB663983)
    Complete name : E:\Dungeons.and.Dragons.Honor.Among.Thieves.2023.1 080p.WEB-DL.DDP5.1.H264.mkv
    Format : Matroska
    Format version : Version 4 / Version 2
    File size : 8.30 GiB
    Duration : 2h 15mn
    Overall bit rate : 8 742 Kbps
    Movie name : Dungeons.and.Dragons.Honor.Among.Thieves.2023.1080 p.WEB-DL.DDP5.1.H264@Argon
    Encoded date : UTC 2023-05-20 11:33:35
    Writing application : mkvmerge v74.0.0 ('You Oughta Know') 64-bit
    Writing library : libebml v1.4.4 + libmatroska v1.7.1
    Attachements : cover.bmp
    DURATION : 02:12:58.391000000
    NUMBER_OF_FRAMES : 1589
    NUMBER_OF_BYTES : 9081702
    _STATISTICS_WRITING_APP : mkvmerge v74.0.0 ('You Oughta Know') 64-bit
    _STATISTICS_WRITING_DATE_UTC : 2023-05-20 11:33:35
    _STATISTICS_TAGS : BPS DURATION NUMBER_OF_FRAMES NUMBER_OF_BYTES

    Video
    ID : 1
    Format : AVC
    Format/Info : Advanced Video Codec
    Format profile : High@L4
    Format settings, CABAC : Yes
    Format settings, ReFrames : 4 frames
    Codec ID : V_MPEG4/ISO/AVC
    Duration : 2h 15mn
    Bit rate mode : Constant
    Bit rate : 7 704 Kbps
    Nominal bit rate : 10 000 Kbps
    Width : 1 920 pixels
    Height : 800 pixels
    Display aspect ratio : 2.40:1
    Frame rate mode : Constant
    Frame rate : 23.976 fps
    Color space : YUV
    Chroma subsampling : 4:2:0
    Bit depth : 8 bits
    Scan type : Progressive
    Bits/(Pixel*Frame) : 0.209
    Stream size : 7.32 GiB (88%)
    Title : Dungeons.and.Dragons.Honor.Among.Thieves.2023.1080 p.WEB-DL.DDP5.1.H264@Argon
    Default : Yes
    Forced : No
    Color range : Limited
    Color primaries : BT.709
    Transfer characteristics : BT.709
    Matrix coefficients : BT.709

    Audio #1
    ID : 2
    Format : E-AC-3
    Format/Info : Audio Coding 3
    Format settings, Endianness : Big
    Codec ID : A_EAC3
    Duration : 2h 15mn
    Bit rate mode : Constant
    Bit rate : 224 Kbps
    Channel(s) : 2 channels
    Channel positions : Front: L R
    Sampling rate : 48.0 KHz
    Compression mode : Lossy
    Stream size : 218 MiB (3%)
    Title : Thai-DDP2.0
    Language : Thai
    Default : Yes
    Forced : Yes

    Audio #2
    ID : 3
    Format : E-AC-3
    Format/Info : Audio Coding 3
    Format settings, Endianness : Big
    Codec ID : A_EAC3
    Duration : 2h 15mn
    Bit rate mode : Constant
    Bit rate : 640 Kbps
    Channel(s) : 6 channels
    Channel positions : Front: L C R, Side: L R, LFE
    Sampling rate : 48.0 KHz
    Compression mode : Lossy
    Stream size : 622 MiB (7%)
    Title : English-DDP 5.1
    Language : English
    Default : Yes
    Forced : No

    Text #1
    ID : 4
    Format : PGS
    Muxing mode : zlib
    Codec ID : S_HDMV/PGS
    Codec ID/Info : Picture based subtitle format used on BDs/HD-DVDs
    Language : Thai
    Default : Yes
    Forced : No

    Text #2
    ID : 5
    Format : VobSub
    Muxing mode : zlib
    Codec ID : S_VOBSUB
    Codec ID/Info : Picture based subtitle format used on DVDs
    Language : Thai
    Default : Yes
    Forced : No

    Text #3
    ID : 6
    Format : UTF-8
    Codec ID : S_TEXT/UTF8
    Codec ID/Info : UTF-8 Plain Text
    Language : Thai
    Default : Yes
    Forced : No

    Text #4
    ID : 7
    Format : UTF-8
    Codec ID : S_TEXT/UTF8
    Codec ID/Info : UTF-8 Plain Text
    Title : English-SRT
    Language : English
    Default : Yes
    Forced : No

    Text #5
    ID : 8
    Format : UTF-8
    Codec ID : S_TEXT/UTF8
    Codec ID/Info : UTF-8 Plain Text
    Title : English-SRT SDH
    Language : English
    Default : Yes
    Forced : No



    Dungeons.and.Dragons.Honor.Among.Thieves.2023.1080 p.WEB-DL.DDP5.1.H264.mkv
    http://www.filecondo.com/dl.php?f=Ne45511Q0Min
    8.91 GB

  2. The Following 2 Users Say Thank You to Duckload.us For This Useful Post:

    Eternallove (06-02-2023), mettset (05-23-2023)

+ ตอบกลับกระทู้

ข้อมูลกระทู้

Users Browsing this Thread

ในขณะนี้มี 1 ท่านดูกระทู้อยู่. (0 สมาชิกและ 1 ผู้เยี่ยมชม)

     

กฎการโพสต์ข้อความ

  • ท่าน ไม่สามารถ ตั้งกระทู้ใหม่ได้
  • ท่าน ไม่สามารถ ตอบกระทู้ได้
  • ท่าน ไม่สามารถ แนบไฟล์ได้
  • ท่าน ไม่สามารถ แก้ไขข้อความโพสต์ได้
  • BB code สถานะ เปิด
  • Smilies สถานะ เปิด
  • [IMG] สถานะ เปิด
  • HTML สถานะ ปิด