+ ตอบกลับกระทู้
สรุปผลการค้นหา 1 ถึง 2 จากทั้งหมด 2
  1. #1
    Administrators รูปส่วนตัว Duckload.us
    สมัครเมื่อ
    Dec 2010
    โพสต์
    151,817
    Thanks
    7
    Thanked 158,780 Times in 69,420 Posts

    Lightbulb [ฝรั่ง]-John Wick Chapter 4 (2023) จอห์น วิค แรงกว่านรก 4-WEB-DL DDP 5.1.H.264.1080p. [Modified]-[พากย์ไทยโรง - บรรยายไทย]




    John Wick Chapter 4 พาผู้ชมไปสู่จักรวาลนักฆ่าที่ถูกขยายขอบเขตยิ่งกว่าเ ดิม หลักจากที่ จอห์น วิค (คีอานู รีฟส์) เอาตัวรอดจากนักฆ่าและการตามล่าจากสภาสูงมาได้ เขาได้ค้นพบว่าหนทางรอดเดียวที่จะทำให้ชีวิตเขาเป็นอ ิสระ คือการต้องกลับมาเผชิญหน้ากับชะตากรรมที่รอเขาอยู่แล ะเป้าหมายเดียวคือต้องโค่นสภาสูงให้สำเร็จ โดยครั้งนี้เขาต้องรับมือกับศัตรูอำมหิตรายใหม่ที่มี อิทธิพลกว้างขวางไปทั่ววงศ์วานนักฆ่าทั้งโลก ผู้พร้อมจะเปลี่ยนมิตรให้กลายเป็นศัตรู เปลี่ยนลมหายใจให้กลายเป็นร่างไร้วิญญาณ เปิดฉากการตามล่าครั้งใหม่ที่กินอาณาเขตแค้นไปถึง 3 ทวีป ทั้งในนิวยอร์ก ปารีส เบอร์ลิน และโอซาก้า

    Complete name : D:/movies/John Wick Chapter 4 (2023) จอห์น วิค แรงกว่านรก 4 4 .1080p.WEBRip.x264.AAC5.1 @bURiN.mkv
    Format : Matroska
    Format version : Version 4
    File size : 3.28 GiB
    Duration : 2 h 49 min
    Overall bit rate : 2 773 kb/s
    Movie name : John Wick Chapter 4 (2023) จอห์น วิค แรงกว่านรก 4.1080p.WEBRip.x264.AAC5.1 @bURiN
    Encoded date : UTC 2023-05-23 10:52:27
    Writing application : mkvmerge v68.0.0 ('The Curtain') 32-bit
    Writing library : libebml v1.4.2 + libmatroska v1.6.4

    Video
    ID : 1
    Format : AVC
    Format/Info : Advanced Video Codec
    Format profile : [email protected]
    Format settings : CABAC / 4 Ref Frames
    Format settings, CABAC : Yes
    Format settings, Reference frames : 4 frames
    Codec ID : V_MPEG4/ISO/AVC
    Duration : 2 h 49 min
    Bit rate : 2 250 kb/s
    Width : 1 920 pixels
    Height : 798 pixels
    Display aspect ratio : 2.40:1
    Frame rate mode : Constant
    Frame rate : 23.976 (24000/1001) FPS
    Color space : YUV
    Chroma subsampling : 4:2:0
    Bit depth : 8 bits
    Scan type : Progressive
    Bits/(Pixel*Frame) : 0.061
    Stream size : 2.66 GiB (81%)
    Writing library : x264 core 164
    Encoding settings : cabac=1 / ref=4 / deblock=1:-1:-1 / analyse=0x3:0x133 / me=umh / subme=9 / psy=1 / psy_rd=1.00:0.15 / mixed_ref=1 / me_range=24 / chroma_me=1 / trellis=2 / 8x8dct=1 / cqm=0 / deadzone=21,11 / fast_pskip=0 / chroma_qp_offset=-3 / threads=24 / lookahead_threads=2 / sliced_threads=0 / nr=0 / decimate=1 / interlaced=0 / bluray_compat=0 / constrained_intra=0 / bframes=3 / b_pyramid=2 / b_adapt=2 / b_bias=0 / direct=3 / weightb=1 / open_gop=0 / weightp=2 / keyint=250 / keyint_min=23 / scenecut=40 / intra_refresh=0 / rc_lookahead=60 / rc=2pass / mbtree=1 / bitrate=2250 / ratetol=1.0 / qcomp=0.60 / qpmin=0 / qpmax=69 / qpstep=4 / cplxblur=20.0 / qblur=0.5 / vbv_maxrate=31250 / vbv_bufsize=31250 / nal_hrd=none / filler=0 / ip_ratio=1.40 / aq=1:1.00
    Default : Yes
    Forced : No
    Color range : Limited
    Color primaries : BT.709
    Transfer characteristics : BT.709
    Matrix coefficients : BT.709

    Audio #1
    ID : 2
    Format : E-AC-3
    Format/Info : Enhanced AC-3
    Commercial name : Dolby Digital Plus
    Codec ID : A_EAC3
    Duration : 2 h 49 min
    Bit rate mode : Constant
    Bit rate : 384 kb/s
    Channel(s) : 6 channels
    Channel layout : L R C LFE Ls Rs
    Sampling rate : 48.0 kHz
    Frame rate : 31.250 FPS (1536 SPF)
    Compression mode : Lossy
    Stream size : 465 MiB (14%)
    Title : อังกฤษ E-AC-3 5.1
    Language : English
    Service kind : Complete Main
    Default : No
    Forced : No

    Audio #2
    ID : 3
    Format : AAC LC
    Format/Info : Advanced Audio Codec Low Complexity
    Codec ID : A_AAC-2
    Duration : 2 h 49 min
    Bit rate : 119 kb/s
    Channel(s) : 2 channels
    Channel layout : L R
    Sampling rate : 48.0 kHz
    Frame rate : 46.875 FPS (1024 SPF)
    Compression mode : Lossy
    Stream size : 144 MiB (4%)
    Title : ไทยโรง AAC
    Language : Thai
    Default : Yes
    Forced : No

    Text #1
    ID : 4
    Format : UTF-8
    Codec ID : S_TEXT/UTF8
    Codec ID/Info : UTF-8 Plain Text
    Duration : 2 h 39 min
    Bit rate : 21 b/s
    Count of elements : 1063
    Stream size : 25.4 KiB (0%)
    Title : อังกฤษ SRT
    Language : English
    Default : No
    Forced : No

    Text #2
    ID : 5
    Format : UTF-8
    Codec ID : S_TEXT/UTF8
    Codec ID/Info : UTF-8 Plain Text
    Duration : 2 h 48 min
    Bit rate : 28 b/s
    Count of elements : 1594
    Stream size : 34.9 KiB (0%)
    Title : อังกฤษ [SDH]
    Language : English
    Default : No
    Forced : No

    Text #3
    ID : 6
    Format : UTF-8
    Codec ID : S_TEXT/UTF8
    Codec ID/Info : UTF-8 Plain Text
    Duration : 2 h 37 min
    Bit rate : 22 b/s
    Count of elements : 1050
    Stream size : 26.3 KiB (0%)
    Title : เฟรน SRT
    Language : French
    Default : No
    Forced : No

    Text #4
    ID : 7
    Format : UTF-8
    Codec ID : S_TEXT/UTF8
    Codec ID/Info : UTF-8 Plain Text
    Duration : 2 h 37 min
    Bit rate : 57 b/s
    Count of elements : 969
    Stream size : 66.4 KiB (0%)
    Title : ไทย SRT
    Language : Thai
    Default : Yes
    Forced : No

    Text #5
    ID : 8
    Format : PGS
    Muxing mode : zlib
    Codec ID : S_HDMV/PGS
    Codec ID/Info : Picture based subtitle format used on BDs/HD-DVDs
    Duration : 2 h 37 min
    Bit rate : 14.4 kb/s
    Count of elements : 1938
    Stream size : 16.2 MiB (0%)
    Title : ไทย เหลือง PGS
    Language : Thai
    Default : No
    Forced : No

    Text #6
    ID : 9
    Format : PGS
    Muxing mode : zlib
    Codec ID : S_HDMV/PGS
    Codec ID/Info : Picture based subtitle format used on BDs/HD-DVDs
    Duration : 2 h 37 min
    Bit rate : 14.4 kb/s
    Count of elements : 1938
    Stream size : 16.2 MiB (0%)
    Title : ไทย PGS
    Language : Thai
    Default : No
    Forced : No

    Text #7
    ID : 10
    Format : VobSub
    Muxing mode : zlib
    Codec ID : S_VOBSUB
    Codec ID/Info : Picture based subtitle format used on DVDs
    Duration : 2 h 37 min
    Bit rate : 4 751 b/s
    Count of elements : 969
    Stream size : 5.35 MiB (0%)
    Title : ไทย เหลือง VobSub
    Language : Thai
    Default : No
    Forced : No

    Text #8
    ID : 11
    Format : VobSub
    Muxing mode : zlib
    Codec ID : S_VOBSUB
    Codec ID/Info : Picture based subtitle format used on DVDs
    Duration : 2 h 37 min
    Bit rate : 4 841 b/s
    Count of elements : 969
    Stream size : 5.45 MiB (0%)
    Title : ไทย VobSub
    Language : Thai
    Default : No
    Forced : No



    John_Wick_Chapter_4_(2023)_จอห์น_วิค_แรงกว่านรก_4_ .1080p.WEBRip.x264.AAC5.1.bURiN.mkv
    http://www.filecondo.com/dl.php?f=Y44c7e1Q1yAo
    3.52 GB

  2. The Following 2 Users Say Thank You to Duckload.us For This Useful Post:

    sawara (05-24-2023), Wesker_TOT (05-25-2023)

  3. #2
    Senior Member
    สมัครเมื่อ
    Dec 2013
    โพสต์
    6,241
    Thanks
    8,224
    Thanked 0 Times in 0 Posts
    ขอบคุณครับ...

+ ตอบกลับกระทู้

ข้อมูลกระทู้

Users Browsing this Thread

ในขณะนี้มี 1 ท่านดูกระทู้อยู่. (0 สมาชิกและ 1 ผู้เยี่ยมชม)

     

กฎการโพสต์ข้อความ

  • ท่าน ไม่สามารถ ตั้งกระทู้ใหม่ได้
  • ท่าน ไม่สามารถ ตอบกระทู้ได้
  • ท่าน ไม่สามารถ แนบไฟล์ได้
  • ท่าน ไม่สามารถ แก้ไขข้อความโพสต์ได้
  • BB code สถานะ เปิด
  • Smilies สถานะ เปิด
  • [IMG] สถานะ เปิด
  • HTML สถานะ ปิด