+ ตอบกลับกระทู้
สรุปผลการค้นหา 1 ถึง 2 จากทั้งหมด 2
  1. #1
    Administrators รูปส่วนตัว Duckload.us
    สมัครเมื่อ
    Dec 2010
    โพสต์
    146,247
    Thanks
    7
    Thanked 153,386 Times in 66,800 Posts

    Lightbulb [V.5] Fast.X.2023.HDCAM.1080p.x264.THR-Zoom.V5.ภาพเสียงคมชัดขึ้น[พากย์ ENG : ไทยโรง AC-3][Sub ไทย]ไม่มี AD




    Video

    ID : 1

    Format : AVC

    Format/Info : Advanced Video Codec

    Format profile : [email protected]

    Format settings : CABAC / 4 Ref Frames

    Format settings, CABAC : Yes

    Format settings, Reference fra : 4 frames

    Codec ID : V_MPEG4/ISO/AVC

    Duration : 2 h 11 min

    Bit rate : 3 087 kb/s

    Width : 1 920 pixels

    Height : 840 pixels

    Display aspect ratio : 2.25:1

    Frame rate mode : Constant

    Frame rate : 24.000 FPS

    Color space : YUV

    Chroma subsampling : 4:2:0

    Bit depth : 8 bits

    Scan type : Progressive

    Bits/(Pixel*Frame) : 0.080

    Stream size : 2.83 GiB (68%)

    Writing library : x264 core 157 r2935 545de2f

    Audio #1

    ID : 2

    Format : AC-3

    Format/Info : Audio Coding 3

    Commercial name : Dolby Digital

    Codec ID : A_AC3

    Duration : 2 h 11 min

    Bit rate mode : Constant

    Bit rate : 192 kb/s

    Channel(s) : 2 channels

    Channel layout : L R

    Sampling rate : 48.0 kHz

    Frame rate : 31.250 FPS (1536 SPF)

    Bit depth : 16 bits

    Compression mode : Lossy

    Stream size : 180 MiB (4%)

    Language : English

    Service kind : Complete Main

    Default : Yes

    Forced : No

    Audio #2

    ID : 3

    Format : DTS

    Format/Info : Digital Theater Systems

    Codec ID : A_DTS

    Duration : 2 h 11 min

    Bit rate mode : Constant

    Bit rate : 1 026 kb/s

    Channel(s) : 6 channels

    Channel layout : C L R Ls Rs LFE

    Sampling rate : 48.0 kHz

    Frame rate : 93.750 FPS (512 SPF)

    Bit depth : 16 bits

    Compression mode : Lossy

    Stream size : 965 MiB (23%)

    Title : Lat YG

    Language : Spanish

    Default : Yes

    Forced : No

    Audio #3

    ID : 4

    Format : AC-3

    Format/Info : Audio Coding 3

    Commercial name : Dolby Digital

    Codec ID : A_AC3

    Duration : 2 h 11 min

    Bit rate mode : Constant

    Bit rate : 192 kb/s

    Channel(s) : 2 channels

    Channel layout : L R

    Sampling rate : 48.0 kHz

    Frame rate : 31.250 FPS (1536 SPF)

    Bit depth : 16 bits

    Compression mode : Lossy

    Stream size : 181 MiB (4%)

    Title : THR

    Language : Thai

    Service kind : Complete Main

    Default : Yes

    Forced : No

    Text #1

    ID : 5

    Format : PGS

    Muxing mode : zlib

    Codec ID : S_HDMV/PGS

    Codec ID/Info : Picture based subtitle format used on BDs/HD-DVDs

    Duration : 2 h 10 min

    Bit rate : 29.0 kb/s

    Count of elements : 2662

    Stream size : 27.1 MiB (1%)

    Language : Thai

    Default : Yes

    Forced : No

    Text #2

    ID : 6

    Format : UTF-8

    Codec ID : S_TEXT/UTF8

    Codec ID/Info : UTF-8 Plain Text

    Duration : 2 h 10 min

    Bit rate : 103 b/s

    Count of elements : 1331

    Stream size : 98.8 KiB (0%)

    Language : Thai

    Default : Yes

    Forced : No




    Fast.X.2023.V5.HDCAM.1080p.Latino.DTS.5.1.x264.mkv
    http://www.filecondo.com/dl.php?f=250d051Q314X
    4.45 GB

  2. The Following 4 Users Say Thank You to Duckload.us For This Useful Post:

    masaomi (05-30-2023), petpina2010 (05-29-2023), Tellmon (05-30-2023), Wesker_TOT (05-29-2023)

  3. #2
    Senior Member
    สมัครเมื่อ
    Dec 2013
    โพสต์
    5,400
    Thanks
    7,383
    Thanked 0 Times in 0 Posts
    ขอบคุณครับ...

+ ตอบกลับกระทู้

ข้อมูลกระทู้

Users Browsing this Thread

ในขณะนี้มี 1 ท่านดูกระทู้อยู่. (0 สมาชิกและ 1 ผู้เยี่ยมชม)

     

กฎการโพสต์ข้อความ

  • ท่าน ไม่สามารถ ตั้งกระทู้ใหม่ได้
  • ท่าน ไม่สามารถ ตอบกระทู้ได้
  • ท่าน ไม่สามารถ แนบไฟล์ได้
  • ท่าน ไม่สามารถ แก้ไขข้อความโพสต์ได้
  • BB code สถานะ เปิด
  • Smilies สถานะ เปิด
  • [IMG] สถานะ เปิด
  • HTML สถานะ ปิด